Filmbol Forum

Orjinalini görmek için tıklayınız: Beta Test Türkçe Dublaj Brrip-Xvid İndir
Şu anda (Arşiv) modunu görüntülemektesiniz. Orjinal Sürümü Görüntüle internal link

indirme türü


Bulut + Premium

vizyon tarihi


22 Haziran 2016

Boyutlar


1,21GB

diller


[TR]

altyazilar


Yok [Eklenebilir]

Video Format: Avi


Audio Video Interleave (.AVI)

Video Detay


MPEG-4, 1841 Kbps, 1,13 GB

imdb puanı


6,5 / 10,0 / 10,000

süre


88 dakika

Ses Kodek: MP3


MPEG-1 Audio Layer III (MP3)

Ses Detay


128 Kbps, 2 Kanal, 81 Mb

rarsifresi


filmbol.org

Editör Puanı


6,0

Genislik Yukseklik


720x304

sürüm


h263 | WEBRip-Xvid



Film Detayları

Şampiyon oyuncu Max Troy; video oyununda olan olayların, gerçek dünyada da olduğunu keşfeder ve oyunun kahramanı Orson Creed ile; oyunun kötü amacı şehri boğmadan önce komployu ortaya çıkartmalıdır.

Teknik Detaylar
Kod:
General
Format                                   : AVI
Format/Info                              : Audio Video Interleave
File size                                : 1.22 GiB
Duration                                 : 1h 28mn
Overall bit rate                         : 1 978 Kbps

Video
ID                                       : 0
Format                                   : MPEG-4 Visual
Format profile                           : Advanced Simple@L5
Format settings, BVOP                    : 2
Format settings, QPel                    : No
Format settings, GMC                     : No warppoints
Format settings, Matrix                  : Default (H.263)
Muxing mode                              : Packed bitstream
Codec ID                                 : XVID
Codec ID/Hint                            : XviD
Duration                                 : 1h 28mn
Bit rate                                 : 1 841 Kbps
Width                                    : 720 pixels
Height                                   : 304 pixels
Display aspect ratio                     : 2.35:1
Frame rate                               : 23.976 fps
Color space                              : YUV
Chroma subsampling                       : 4:2:0
Bit depth                                : 8 bits
Scan type                                : Progressive
Compression mode                         : Lossy
Bits/(Pixel*Frame)                       : 0.351
Stream size                              : 1.13 GiB (93%)
Writing library                          : XviD 66

Audio
ID                                       : 1
Format                                   : MPEG Audio
Format version                           : Version 1
Format profile                           : Layer 3
Mode                                     : Joint stereo
Mode extension                           : MS Stereo
Codec ID                                 : 55
Codec ID/Hint                            : MP3
Duration                                 : 1h 28mn
Source duration                          : 1h 28mn
Bit rate mode                            : Constant
Bit rate                                 : 128 Kbps
Channel(s)                               : 2 channels
Sampling rate                            : 48.0 KHz
Compression mode                         : Lossy
Stream size                              : 80.6 MiB (6%)
Alignment                                : Aligned on interleaves
Interleave, duration                     : 42 ms (1.00 video frame)



Film Detayları


Beta Test

Beta Test

Beta Test

Beta Test

Beta Test


Film Fragmanı


Film Detayları

Brrip İndir


Turbobit İle İndir

Mega ile indir

Uptobox ile indir

Mypcloud ile indir