Filmbol Forum

Orjinalini görmek için tıklayınız: Geliş (Arrival) Türkçe Dublaj Brrip-Xvid İndir
Şu anda (Arşiv) modunu görüntülemektesiniz. Orjinal Sürümü Görüntüle internal link

indirme türü


Bulut + Premium

vizyon tarihi


11 Kasım 2016

Boyutlar


1,06GB

diller


[TR]

altyazilar


Yok [Eklenebilir]

Video Format: Avi


Audio Video Interleave (.AVI)

Video Detay


MPEG-4, 1171 Kbps, 0,97 GB

imdb puanı


8,1 / 10,0 / 270,000

süre


116 dakika

Ses Kodek: MP3


MPEG-1 Audio Layer III (MP3)

Ses Detay


128 Kbps, 2 Kanal, 107 Mb

rarsifresi


filmbol.org

Editör Puanı


8,5

Genislik Yukseklik


720x304

sürüm


h263 | Brrip-Xvid



Film Detayları

Film, ordu dilbilimcisi Dr. Louise Banks'in hikayesini anlatıyor. Birden çok uzay gemisi dünyaya iniş yapınca dünya adeta sarsılır. Amaçlarının ne olduğu bilinmeyen uzaylılarla iletişim kurmanın yolları aranmaya başlar. Uzaylılarla iletişim kurması için ordu dilbilimcisi Dr. Louise Banks çağrılır. Doktora yardımcı olması için de fizikçi Ian Donnelly seçilir. İkilinin artık en önemli görevi uzaylıların barışçıl mı yoksa istilacı mı olduğunu belirleyebilmektir. Bu süreçte bir diğer zorluk da ordunun ısrarcı bir şekilde saldırı yanlısı olması olacaktır...

Başrollerine Superman'in sevgilisi Louis Lane rolünde boy gösteren Amy Adams ve Marvel'ın Hawkeye'ı Jeremy Renner'ı yerleştiren Arrival filminin yönetmen koltuğunda Sicario'nun yönetmeni Denis Villeneuve oturuyor. Filmin senaryosunu ise Elm Sokağında Kabus ve Son Durak 5'in senaryolarına imzasını atan Eric Heisserer yazıyor. Filmin kadrosunda Michael Stuhlbarg, Tzi Ma, Mark O’Brien ve Forest Whitaker da yer alıyor.

Teknik Detaylar
Kod:
General
Format                                   : AVI
Format/Info                              : Audio Video Interleave
File size                                : 1.06 GiB
Duration                                 : 1h 56mn
Overall bit rate                         : 1 308 Kbps

Video
ID                                       : 0
Format                                   : MPEG-4 Visual
Format profile                           : Advanced Simple@L5
Format settings, BVOP                    : 2
Format settings, QPel                    : No
Format settings, GMC                     : No warppoints
Format settings, Matrix                  : Default (H.263)
Muxing mode                              : Packed bitstream
Codec ID                                 : XVID
Codec ID/Hint                            : XviD
Duration                                 : 1h 56mn
Bit rate                                 : 1 171 Kbps
Width                                    : 720 pixels
Height                                   : 304 pixels
Display aspect ratio                     : 2.35:1
Frame rate                               : 23.976 fps
Color space                              : YUV
Chroma subsampling                       : 4:2:0
Bit depth                                : 8 bits
Scan type                                : Progressive
Compression mode                         : Lossy
Bits/(Pixel*Frame)                       : 0.223
Stream size                              : 974 MiB (89%)
Writing library                          : XviD 66

Audio
ID                                       : 1
Format                                   : MPEG Audio
Format version                           : Version 1
Format profile                           : Layer 3
Mode                                     : Joint stereo
Mode extension                           : MS Stereo
Codec ID                                 : 55
Codec ID/Hint                            : MP3
Duration                                 : 1h 56mn
Source duration                          : 1h 56mn
Bit rate mode                            : Constant
Bit rate                                 : 128 Kbps
Channel(s)                               : 2 channels
Sampling rate                            : 48.0 KHz
Compression mode                         : Lossy
Stream size                              : 107 MiB (10%)
Alignment                                : Aligned on interleaves
Interleave, duration                     : 42 ms (1.00 video frame)



Film Detayları


Arrival

Arrival

Arrival

Arrival

Arrival


Film Fragmanı


Film Detayları

Brrip İndir


Turbobit İle İndir

Mega ile indir

Uptobox ile indir

Mypcloud ile indir