Filmbol Forum

Orjinalini görmek için tıklayınız: Zamanın Ötesinde (Predestination) Türkçe Dublaj Brrip-Xvid İndir
Şu anda (Arşiv) modunu görüntülemektesiniz. Orjinal Sürümü Görüntüle internal link

indirme türü


Bulut + Premium

vizyon tarihi


28 Ağustos 2014

Boyutlar


0,69GB

diller


[TR]

altyazilar


Yok [Eklenebilir]

Video Format: Avi


Audio Video Interleave (.AVI)

Video Detay


MPEG-4, 871 Kbps, 0,60 GB

imdb puanı


7,5 / 10,0 / 180,000

süre


97 dakika

Ses Kodek: MP3


MPEG-1 Audio Layer III (MP3)

Ses Detay


128 Kbps, 2 Kanal, 90 Mb

rarsifresi


filmbol.org

Editör Puanı


8,0

Genislik Yukseklik


656x272

sürüm


h263 | Brrip-Xvid



Film Detayları

Sıkı bir bilimkurgu filmi olan Predestination, zamanda seyahat edip olmuş ya da olası olayların önüne geçmeye veya suçluları yakalamaya çalışan bir zamansal ajanın hikayesini konu eder. Gizli bir serivise bağlı çalışan ajanın son görevi ise; 1975 yılında New York'ta yaptığı bir patlamada 11.000 insanın ölümünden sorumlu olan Fiyasko Bombacısı adlı kişiyi bulup bu patlamanın hiç yaşanmamış olmasını sağlamaktır... Görevi için 1970 yılına New York'ta bir barda, barmen olarak çalışmaya başlayan ajan orada “Evlenmemiş Anne” rumuzlu John isimli bir köşe yazarıyla tanışır. Küçük bir bar sohbetiyle başlayan ikilinin sohbeti, gecenin ilerleyen saatlerinde daha da derinleşir...

Tıpkı bir önceki filmlerinde olduğu gibi yine ünlü aktör Ethan Hawke ile işbirliği yapan Spierig Kardeşler bu sefer Looper ile Azınlık Raporu'nun karması olacak bir bilimkurgu-gerilim çeşitlemesine imza atıyorlar! Yılın sürpriz polisiye soslu bilimkurgusal hadiselerinden biri olmaya aday film kendi kulvarında bir hayli iddialı görünüyor!


Teknik Detaylar
Kod:
General
Format                                   : AVI
Format/Info                              : Audio Video Interleave
File size                                : 705 MiB
Duration                                 : 1h 37mn
Overall bit rate                         : 1 008 Kbps

Video
ID                                       : 0
Format                                   : MPEG-4 Visual
Format profile                           : Advanced Simple@L5
Format settings, BVOP                    : 2
Format settings, QPel                    : No
Format settings, GMC                     : No warppoints
Format settings, Matrix                  : Default (H.263)
Codec ID                                 : XVID
Codec ID/Hint                            : XviD
Duration                                 : 1h 37mn
Bit rate                                 : 871 Kbps
Width                                    : 656 pixels
Height                                   : 272 pixels
Display aspect ratio                     : 2.40:1
Frame rate                               : 23.976 fps
Color space                              : YUV
Chroma subsampling                       : 4:2:0
Bit depth                                : 8 bits
Scan type                                : Progressive
Compression mode                         : Lossy
Bits/(Pixel*Frame)                       : 0.204
Stream size                              : 609 MiB (86%)
Writing library                          : XviD 1.2.1 (UTC 2008-12-04)

Audio
ID                                       : 1
Format                                   : MPEG Audio
Format version                           : Version 1
Format profile                           : Layer 3
Mode                                     : Joint stereo
Mode extension                           : MS Stereo
Codec ID                                 : 55
Codec ID/Hint                            : MP3
Duration                                 : 1h 37mn
Source duration                          : 1h 37mn
Bit rate mode                            : Constant
Bit rate                                 : 128 Kbps
Channel(s)                               : 2 channels
Sampling rate                            : 48.0 KHz
Compression mode                         : Lossy
Stream size                              : 89.5 MiB (13%)
Alignment                                : Aligned on interleaves
Interleave, duration                     : 42 ms (1.00 video frame)
Writing library                          : LAME3.99r
Encoding settings                        : -m j -V 4 -q 2 -lowpass 17 -b 128



Film Detayları


Zamanin Otesinde

Zamanin Otesinde

Zamanin Otesinde

Zamanin Otesinde

Zamanin Otesinde


Film Fragmanı


Film Detayları

[brrpindir][/brripindir]

Turbobit İle İndir

Mega ile indir

Uptobox ile indir

Cloud Ru ile indir