Filmbol Forum

Tam Versiyon: Kayıp Balık Dori (Finding Dory) - 2016 - TR+ORG - FHD - x264 | tt2277860
Şu anda arşiv modunu görüntülemektesiniz. Tam versiyonu görüntülemek için buraya tıklayınız.


 Kayıp Balık Dori



Nemo ve Marlin’le birlikte mutlu mesut yaşayan, herkesin sevdiği unutkan mavi Tang balığı Dori aniden ailesinin kendisini arıyor olabileceğini hatırlayınca Marlin ve Nemo alarak okyanusu aşar ve Kaliforniya’nın prestijli rehabilitasyon merkezi ve akvaryumu olan Deniz Yaşam Enstitüsü’ne gider.
Annesiyle babasını bulmaya çalışan Dori, DYE’nin üç ilginç sakininin yardımına başvurur. Bunlar, sık sık çalışanlardan kaçıp duran huysuz ahtapot “Hank”, eko-konumlama becerisinin düzgün çalışmadığını düşünen bir Beluga balinası “Bailey” ve miyop bir balina köpekbalığı olan “Destiny”‘dir.
Enstitünün karmaşık iç yüzünü araştıran Dori ve arkadaşları, kusurlarının, dostluklarının ve ailenin sihrini keşfedecekleri, hayatlarını değiştirecek bir maceraya atılırlar.

Kayıp Balık Dori (2016) (Finding Dory) | tt2277860 Filmi Imdb'den 250,000 kişi tarafından oylandı ve 7,3 puan aldı. Bu film için editör puanı %85 olarak belirlendi. İyi Seyirler!

Teknik Detaylar

Kod:
General
Unique ID                                : 49110219386062209484836962077989308207 (0x24F248C1ED88835DE12ADBEA1CB6872F)
Complete name                            : /home/BroserBros/Desktop/2/Kayıp.Balık.Dori.2016.FHD.BluRay.x264.TR.ENG.Filmbol.mkv
Format                                   : Matroska
Format version                           : Version 4
File size                                : 6.27 GiB
Duration                                 : 1 h 37 min
Overall bit rate                         : 9 251 kb/s
Movie name                               : Kayıp Balık Dori - Finding Dory - 2016 | Filmbol.org
Encoded date                             : UTC 2021-04-15 14:33:31
Writing application                      : mkvmerge v53.0.0 ('Fool's Gold') 64-bit
Writing library                          : libebml v1.4.1 + libmatroska v1.6.2

Video
ID                                       : 1
Format                                   : AVC
Format/Info                              : Advanced Video Codec
Format profile                           : [email protected]
Format settings                          : CABAC / 4 Ref Frames
Format settings, CABAC                   : Yes
Format settings, Reference frames        : 4 frames
Codec ID                                 : V_MPEG4/ISO/AVC
Duration                                 : 1 h 37 min
Bit rate                                 : 8 160 kb/s
Width                                    : 1 920 pixels
Height                                   : 1 080 pixels
Display aspect ratio                     : 16:9
Frame rate mode                          : Constant
Frame rate                               : 23.976 (24000/1001) FPS
Color space                              : YUV
Chroma subsampling                       : 4:2:0
Bit depth                                : 8 bits
Scan type                                : Progressive
Bits/(Pixel*Frame)                       : 0.164
Stream size                              : 5.53 GiB (88%)
Title                                    : FHD - Filmbol.org
Writing library                          : x264 core 148 r2705 3f5ed56
Encoding settings                        : cabac=1 / ref=4 / deblock=1:-3:-3 / analyse=0x3:0x113 / me=umh / subme=8 / psy=1 / psy_rd=1.00:0.00 / mixed_ref=1 / me_range=32 / chroma_me=1 / trellis=1 / 8x8dct=1 / cqm=0 / deadzone=21,11 / fast_pskip=1 / chroma_qp_offset=-2 / threads=24 / lookahead_threads=4 / sliced_threads=0 / nr=0 / decimate=1 / interlaced=0 / bluray_compat=0 / constrained_intra=0 / bframes=3 / b_pyramid=2 / b_adapt=2 / b_bias=0 / direct=3 / weightb=1 / open_gop=0 / weightp=2 / keyint=240 / keyint_min=24 / scenecut=40 / intra_refresh=0 / rc_lookahead=50 / rc=2pass / mbtree=1 / bitrate=8160 / ratetol=1.0 / qcomp=0.60 / qpmin=0 / qpmax=69 / qpstep=4 / cplxblur=20.0 / qblur=0.5 / ip_ratio=1.40 / aq=3:0.80
Language                                 : English
Default                                  : Yes
Forced                                   : No

Audio #1
ID                                       : 2
Format                                   : E-AC-3
Format/Info                              : Enhanced AC-3
Commercial name                          : Dolby Digital Plus
Codec ID                                 : A_EAC3
Duration                                 : 1 h 37 min
Bit rate mode                            : Constant
Bit rate                                 : 640 kb/s
Channel(s)                               : 6 channels
Channel layout                           : L R C LFE Ls Rs
Sampling rate                            : 48.0 kHz
Frame rate                               : 31.250 FPS (1536 SPF)
Compression mode                         : Lossy
Delay relative to video                  : 1 s 0 ms
Stream size                              : 444 MiB (7%)
Title                                    : Türkçe - Filmbol.org
Language                                 : Turkish
Service kind                             : Complete Main
Default                                  : Yes
Forced                                   : No

Audio #2
ID                                       : 3
Format                                   : AC-3
Format/Info                              : Audio Coding 3
Commercial name                          : Dolby Digital
Codec ID                                 : A_AC3
Duration                                 : 1 h 37 min
Bit rate mode                            : Constant
Bit rate                                 : 448 kb/s
Channel(s)                               : 6 channels
Channel layout                           : L R C LFE Ls Rs
Sampling rate                            : 48.0 kHz
Frame rate                               : 31.250 FPS (1536 SPF)
Compression mode                         : Lossy
Stream size                              : 311 MiB (5%)
Title                                    : Orjinal Dil - Filmbol.org
Language                                 : English
Service kind                             : Complete Main
Default                                  : No
Forced                                   : No

Text #1
ID                                       : 4
Format                                   : UTF-8
Codec ID                                 : S_TEXT/UTF8
Codec ID/Info                            : UTF-8 Plain Text
Duration                                 : 1 h 35 min
Bit rate                                 : 91 b/s
Count of elements                        : 1528
Stream size                              : 63.4 KiB (0%)
Title                                    : Türkçe - Filmbol.org
Language                                 : Turkish
Default                                  : No
Forced                                   : No

Text #2
ID                                       : 5
Format                                   : UTF-8
Codec ID                                 : S_TEXT/UTF8
Codec ID/Info                            : UTF-8 Plain Text
Duration                                 : 1 h 35 min
Bit rate                                 : 76 b/s
Count of elements                        : 1434
Stream size                              : 53.4 KiB (0%)
Title                                    : Orjinal Dil - Filmbol.org
Language                                 : Portuguese
Default                                  : No
Forced                                   : No

Film Detayları


 Kayıp Balık Dori

 Kayıp Balık Dori

 Kayıp Balık Dori


Film Fragmanı


Film Detayları

Mega linki şuan da gizli. Kullanıma açmak için konuya yorum yapın ve ardından sayfayı yenileyin.

Mega


Bunun için üzgünüz ancak, bu linke sadece premium üyeler erişebilir.

Filmbol Cloud