Filmbol Forum

Orjinalini görmek için tıklayınız: X-Men: Dark Phoenix (2019) Türkçe Dublaj Brrip Xvid İndir
Şu anda (Arşiv) modunu görüntülemektesiniz. Orjinal Sürümü Görüntüle internal link

indirme türü


Bulut + Premium

vizyon tarihi


05 Haziran 2019

Boyutlar


1,38

diller


[TR]

altyazilar


KISIM [Eklenebilir]

Video Format: Avi


Audio Video Interleave (.AVI)

Video Detay


MPEG-4, 1598 Kbps, 1,27GB

imdb puanı


5,9 / 10,0 / 80,000

süre


113 dakika

Ses Kodek: MP3


MPEG-1 Audio Layer III (MP3)

Ses Detay


128 Kbps, 2 Kanal, 104 Mb

Editör Puanı


7,0

Genislik Yukseklik


720-304

sürüm


h263 | Brrip Xvid





X-Men Dark Phoenix


Film Detayları

X-Men ekibinin karşısında şimdiye kadarki en zorlu ve güçlü düşmanları vardır; içlerinde biri olan Jean Grey. Uzaydaki bir kurtarma görevi sırasında, Jean gizemli kozmik bir güç tarafından darbe alır. Neredeyse hayatını kaybeden Jean eve döndüğünde bu gücün onu daha güçlü kıldığını fark eder. Ancak bu güç onu aynı zamanda daha dengesiz bir hale de getirmiştir. İçindeki bu varlıkla mücadele eden Jean, güçlerini idrak edemediği ve sınırlandıramadığı bir şekilde serbest bırakır. Kontrolden çıkan Jean sevdiklerine zarar vermeye başlar ve X-Men’i bir arada tutan yapının çözülmesine sebep olur. Parçalanan ekip tekrar birlik olmanın yolunu bulmalıdır. Mevhubahis yalnızca Jean’i kurtarmak değil, aynı zamanda Jean’in içindeki gücü silahlaştırmak ve galaksiye hükmetmek isteyen uzaylılardan dünyayı kurtarmaktır.

X-Men: Dark Phoenix Filmi Imdb'den 80,000 kişi tarafından oylandı ve 5,9 puan aldı. Bu film için editör puanı 7,0 olarak belirlendi. İyi Seyirler!


Teknik Detaylar

Kod:
General
Complete name                            : Dark.Phoenix.2019.BRRip.XviD.TR.Filmbol.avi
Format                                   : AVI
Format/Info                              : Audio Video Interleave
File size                                : 1.38 GiB
Duration                                 : 1h 53mn
Overall bit rate                         : 1 739 Kbps

Video
ID                                       : 0
Format                                   : MPEG-4 Visual
Format profile                           : Simple@L5
Format settings, BVOP                    : No
Format settings, QPel                    : No
Format settings, GMC                     : No warppoints
Format settings, Matrix                  : Default (H.263)
Codec ID                                 : XVID
Codec ID/Hint                            : XviD
Duration                                 : 1h 53mn
Bit rate                                 : 1 598 Kbps
Width                                    : 720 pixels
Height                                   : 304 pixels
Display aspect ratio                     : 2.40:1
Frame rate                               : 23.976 fps
Color space                              : YUV
Chroma subsampling                       : 4:2:0
Bit depth                                : 8 bits
Scan type                                : Progressive
Compression mode                         : Lossy
Bits/(Pixel*Frame)                       : 0.304
Stream size                              : 1.27 GiB (92%)
Writing library                          : Lavc58.35.100

Audio
ID                                       : 1
Format                                   : MPEG Audio
Format version                           : Version 1
Format profile                           : Layer 3
Mode                                     : Joint stereo
Mode extension                           : MS Stereo
Codec ID                                 : 55
Codec ID/Hint                            : MP3
Duration                                 : 1h 53mn
Bit rate mode                            : Constant
Bit rate                                 : 128 Kbps
Channel(s)                               : 2 channels
Sampling rate                            : 48.0 KHz
Compression mode                         : Lossy
Stream size                              : 104 MiB (7%)
Alignment                                : Aligned on interleaves
Interleave, duration                     : 24 ms (0.58 video frame)
Writing library                          : LAME3.99.5



Film Detayları


Dark Phoenix

Dark Phoenix

Dark Phoenix


Film Fragmanı


Film Detayları

Brrip İndir


MixDrop ile indir

Uptobox ile indir

Tusfiles ile indir

LetsUpload ile indir

Filmbol'da aşağıdaki linkler sadece üyelere sunulur. Ayrıca bu linklerde link kısaltma servisleri kullanılmaz, linke tek tık ile reklamsız erişirsiniz. Konu'ya yorum yapın ve sayfayı yenileyin. Reklamsız linkler (en az 3 en fazla 5 link) açılmış olacaktır. Not: Filmbol'a üye olmak tamamen ücretsizdir, en az 3 link kuralı 01.07.2019 tarihinden sonraki paylaşımlar için geçerlidir. Ancak çoğu film için en az bir premium link her zaman bulunur.

Mega

Dosyaco

Dosyaupload

Mediafire

Google Drive
süper filmm..
Tşk. Ellerinize sağlık.
Teşekkürler....