Filmbol Forum

Orjinalini görmek için tıklayınız: Bird Box (2018) Türkçe Dublaj Brrip Xvid İndir
Şu anda (Arşiv) modunu görüntülemektesiniz. Orjinal Sürümü Görüntüle internal link

indirme türü


Bulut + Premium

vizyon tarihi


21 Kasım 2018

Boyutlar


1,48

diller


[TR]

altyazilar


KISIM [Eklenebilir]

Video Format: Avi


Audio Video Interleave (.AVI)

Video Detay


MPEG-4, 1594 Kbps, 1,38GB

imdb puanı


6,6 / 10,0 / 240,000

süre


124 dakika

Ses Kodek: MP3


MPEG-1 Audio Layer III (MP3)

Ses Detay


128 Kbps, 2 Kanal, 113Mb

Editör Puanı


7,0

Genislik Yukseklik


720-304

sürüm


h263 | WEBRip Xvid





Bird Box


Film Detayları

Bird Box, peşlerinde olanlardan kurtulmak için gözleri bağlı bir şekilde yola koyulan bir kadın ve çocuklarının hikayesini konu ediyor. Her şey tam beş yıl öncesinde başlar. Başlangıçtan bu zamana kadar hayatta kalmayı başaran Malorie ve iki çocuğu için hayat bu süreçte hiç de kolay olmaz. Nehir kenarında terk edilmiş bir evde kalan aile, bugünlere her adımlarını planlayarak gelir. Ailesini güvende olabilecekleri bir yere götürmenin hayalini kuran Malorie ve çocukları için artık gitmedir. Ancak bu yolculuk oldukça tehlikelidir. Tek bir hataları ölümlerine sebep olacaktır. Her şeyden önemlisi de yolculuk sırasında ne olursa olsun gözlerinin bağlı olması gerekir. Zekalarına ve geliştirdikleri duyma yetilerine güvenerek çıktıkları bu yolculukta Malorie ve çocukları yalnız değildir. Peki onların peşinde olan insan mı, hayvan mı, yoksa bir canavar mıdır? Josh Malerman’ın aynı isimli romanından beyaz perdeye uyarlanan filmin yönetmen koltuğunda Susanne Bier oturuyor. Malorie karakterine Sandra Bullock’un hayat verdiği filmin kadrosunda Sarah Paulson, John Malkovich, Jacki Weaver, Trevante Rhodes, Lil Rel Howery gibi isimler yer alıyor.

Bird Box Filmi Imdb'den 240,000 kişi tarafından oylandı ve 6,6 puan aldı. Bu film için editör puanı 7,0 olarak belirlendi. İyi Seyirler!


Teknik Detaylar


Kod:
General
Complete name                            : Bird.Box.2018.WEBRip.XviD.TR.Filmbol.avi
Format                                   : AVI
Format/Info                              : Audio Video Interleave
File size                                : 1.50 GiB
Duration                                 : 2h 3mn
Overall bit rate                         : 1 735 Kbps

Video
ID                                       : 0
Format                                   : MPEG-4 Visual
Format profile                           : Simple@L5
Format settings, BVOP                    : No
Format settings, QPel                    : No
Format settings, GMC                     : No warppoints
Format settings, Matrix                  : Default (H.263)
Codec ID                                 : XVID
Codec ID/Hint                            : XviD
Duration                                 : 2h 3mn
Bit rate                                 : 1 594 Kbps
Width                                    : 720 pixels
Height                                   : 304 pixels
Display aspect ratio                     : 2.40:1
Frame rate                               : 24.000 fps
Color space                              : YUV
Chroma subsampling                       : 4:2:0
Bit depth                                : 8 bits
Scan type                                : Progressive
Compression mode                         : Lossy
Bits/(Pixel*Frame)                       : 0.303
Stream size                              : 1.38 GiB (92%)
Writing library                          : Lavc58.1.100

Audio
ID                                       : 1
Format                                   : MPEG Audio
Format version                           : Version 1
Format profile                           : Layer 3
Mode                                     : Joint stereo
Mode extension                           : MS Stereo
Codec ID                                 : 55
Codec ID/Hint                            : MP3
Duration                                 : 2h 3mn
Bit rate mode                            : Constant
Bit rate                                 : 128 Kbps
Channel(s)                               : 2 channels
Sampling rate                            : 48.0 KHz
Compression mode                         : Lossy
Stream size                              : 113 MiB (7%)
Alignment                                : Aligned on interleaves
Interleave, duration                     : 24 ms (0.58 video frame)
Writing library                          : LAME3.99.5


Film Detayları


Bird Box

Bird Box

Bird Box


Film Fragmanı


Film Detayları

Brrip İndir


MixDrop ile indir

Tusfiles ile indir

LetsUpload ile indir

Filmbol'da aşağıdaki linkler sadece üyelere sunulur. Ayrıca bu linklerde link kısaltma servisleri kullanılmaz, linke tek tık ile reklamsız erişirsiniz. Konu'ya yorum yapın ve sayfayı yenileyin. Reklamsız linkler (en az 3 en fazla 5 link) açılmış olacaktır. Not: Filmbol'a üye olmak tamamen ücretsizdir, en az 3 link kuralı 01.07.2019 tarihinden sonraki paylaşımlar için geçerlidir. Ancak çoğu film için en az bir premium link her zaman bulunur.

Mega

Dosyaco

Dosyaupload

Mediafire

Google Drive
Nice..