Filmbol Forum

Orjinalini görmek için tıklayınız: Avengers: Endgame (2019) Türkçe Dublaj Brrip Xvid İndir
Şu anda (Arşiv) modunu görüntülemektesiniz. Orjinal Sürümü Görüntüle internal link
Sayfalar: 1 2

indirme türü


Bulut + Premium

vizyon tarihi


25 Nisan 2019

Boyutlar


1,17

diller


[TR]

altyazilar


Yok [Eklenebilir]

Video Format: Avi


Audio Video Interleave (.AVI)

Video Detay


MPEG-4, 783Kbps, 1,01GB

imdb puanı


8,6 / 10,0 / 530,000

süre


181 dakika

Ses Kodek: MP3


MPEG-1 Audio Layer III (MP3)

Ses Detay


128 Kbps, 2 Kanal, 166Mb

Editör Puanı


9,0

Genislik Yukseklik


720-300

sürüm


h263 | Brrip Xvid





Avengers Endgame


Film Detayları

"Avengers Infinity War"un ardından pek çok süper kahraman küle dönüşmüştür. Doktor Strange, Gamora, Drax, Mantis, genç Örümcek Adam, Black Panther, Bucky Barnes, Groot, Scarlet Witch, Vision, Star Lord, Maria Hill, The Wasp ve Nick Fury gibi pek çok kahraman, Thanos'un Sonsuzluk Eldiveni'ni ele geçirmesi ve kendi dengesini kurması yüzünden yok olmuştur ve dünya umutsuz haldedir. Dünya üzerinde kalan Black Widow, Kaptan Amerika, Thor ve Hulk kendi yaslarını tutmaktayken, Iron ve Nebula ise kontrol edemedikleri bir uzay gemisinin içinde, uzay boşluğunda sürüklenmektedirler. Süper kahramanlar takımı için işler pek de iyi görünmemektedir. Ancak Kuantum Bölgesi'nden çıkmanın bir yolunu bularak Avengers ekibinin kalan üyelerine giden Ant-Man, yeni bir umut ışığı olacaktır. Daha önce var olduğunu bilmedikleri bölgeler, kahramanlar ve evrenlerin varlığını öğrenen ekip, Thanos'un kurduğu bu çarpık dengeyi değiştirmek ve kendilerinden alınanı geri getirmek için hayatlarının en büyük mücadelesine girişeceklerdir. Hepsi kişisel olarak önem verdikleri şeyleri kaybetmiş olan kahramanlarımız için intikam vakti gelmiştir.
 
Avengers: Endgame (2019) Filmi Imdb'den 530,000 kişi tarafından oylandı ve 8,6 puan aldı. Bu film için editör puanı 9,0 olarak belirlendi. İyi Seyirler!


Teknik Detaylar


Kod:
General
Complete name                            : Avengers.Endgame.2019.BRRip.XVİD.TR.Filmbol.avi
Format                                   : AVI
Format/Info                              : Audio Video Interleave
File size                                : 1.17 GiB
Duration                                 : 3h 1mn
Overall bit rate                         : 923 Kbps

Video
ID                                       : 0
Format                                   : MPEG-4 Visual
Format profile                           : Advanced Simple@L4
Format settings, BVOP                    : 2
Format settings, QPel                    : No
Format settings, GMC                     : No warppoints
Format settings, Matrix                  : Default (H.263)
Codec ID                                 : DIVX
Codec ID/Info                            : Project Mayo
Codec ID/Hint                            : DivX 4
Duration                                 : 3h 1mn
Bit rate                                 : 783 Kbps
Width                                    : 720 pixels
Height                                   : 300 pixels
Display aspect ratio                     : 2.40:1
Frame rate                               : 23.976 (24000/1001) fps
Color space                              : YUV
Chroma subsampling                       : 4:2:0
Bit depth                                : 8 bits
Scan type                                : Progressive
Compression mode                         : Lossy
Bits/(Pixel*Frame)                       : 0.151
Stream size                              : 1 014 MiB (85%)
Writing library                          : XviD 67

Audio
ID                                       : 1
Format                                   : MPEG Audio
Format version                           : Version 1
Format profile                           : Layer 3
Codec ID                                 : 55
Codec ID/Hint                            : MP3
Duration                                 : 3h 1mn
Bit rate mode                            : Constant
Bit rate                                 : 128 Kbps
Channel(s)                               : 2 channels
Sampling rate                            : 48.0 KHz
Compression mode                         : Lossy
Stream size                              : 166 MiB (14%)
Alignment                                : Aligned on interleaves
Interleave, duration                     : 24 ms (0.58 video frame)


Film Detayları


Avengers Endgame

Avengers Endgame

Avengers Endgame


Film Fragmanı


Film Detayları

Brrip İndir



Uptobox ile indir

MixDrop ile indir

LetsUpload ile indir

Filmbol'da aşağıdaki linkler sadece üyelere sunulur. Ayrıca bu linklerde link kısaltma servisleri kullanılmaz, linke tek tık ile reklamsız erişirsiniz. Konu'ya yorum yapın ve sayfayı yenileyin. Reklamsız linkler (en az 3 en fazla 5 link) açılmış olacaktır. Not: Filmbol'a üye olmak tamamen ücretsizdir, en az 3 link kuralı 01.07.2019 tarihinden sonraki paylaşımlar için geçerlidir. Ancak çoğu film için en az bir premium link her zaman bulunur.

Mega

Dosyaco

Dosyaupload

Mediafire

Google Drive
iyi bir film
itunes'a düştü umarım iyi versiyonudur
beklediğim filmdi teşekkürler
iyi film miş
Çok güzel bir film
Merhaba iyidir inş
.....
teşekkürler Smile
Smile  güzel
Sayfalar: 1 2