Filmbol Forum Film İndir BRRip XviD v Arabalar (Cars) - 2006 - TR - BRRip XviD
Moderatör Alımları Başladı! Başvuru yapmak için tıklayın.
Filmbol Premium'da %50'e varan indirim fırsatı!
Arabalar (Cars) - 2006 - TR - BRRip XviD
BroserBros
Arabalar (Cars) - 2006 - TR - BRRip XviD
1
137
  • Derecelendirme: 0/5 - 0 oy
  • 1
  • 2
  • 3
  • 4
  • 5
Konuyu Okuyanlar:1 Ziyaretçi
Şuan Online!
Filmin Yayınlanma Tarihi: 2006 
Şuan Online!
BroserBros Kurucu Admin
*******
Admin

Vizyon Tarihi


15 Eylül 2006

imdb puanı


7,1 / 360,000

süre


117 dakika

Editör Puanı


8,3 / 10

Video Format: Avi


Audio Video Interleave (.AVI)

Ses Kodek: MP3


MPEG-1 Audio Layer III (MP3)

sürüm


h263 | BRRip XviD

Boyutlar


0,69 GB



 Arabalar



Hedefinde Piston Kupası olan genç yarış arabası Şimşek McQueen ilk yarışı başarılı bir şekilde bitirmiştir ve ikinci tura katılmaya hak kazanmıştır. Turnavının ikinci yarışında McQueen bir kaza sonucu onu taşıyan tırdan düşer. Gece yolunu bulamayan Şimşek yanlış yere doğru gider ve kendini ismini bilmediği bir kasabada bulur. Üstelik gece yanlışlıkla kasabanın yollarına zarar vermiştir ve şerif onu yolları tekrar eski haline getirmesi ile cezalandırır. Burada cezasını çekerken de bir yandan benliğini bulurken bir yandan da aşkını bulacaktır.

Arabalar (2006) (Cars) Filmi Imdb'den 360,000 kişi tarafından oylandı ve 7,1 puan aldı. Bu film için editör puanı 8,3 olarak belirlendi. İyi Seyirler!

Teknik Detaylar

Kod :
General
Complete name                            : /root/Desktop/4/Arabalar.2006.BRRip.XviD.TR.Filmbol.avi
Format                                  : AVI
Format/Info                              : Audio Video Interleave
File size                                : 698 MiB
Duration                                : 1h 56mn
Overall bit rate                        : 837 Kbps
Writing application                      : VirtualDubMod 1.5.4.1 (build 2178/release)
Writing library                          : VirtualDubMod build 2178/release

Video
ID                                      : 0
Format                                  : MPEG-4 Visual
Format profile                          : Advanced Simple@L5
Format settings, BVOP                    : 2
Format settings, QPel                    : No
Format settings, GMC                    : No warppoints
Format settings, Matrix                  : Default (MPEG)
Codec ID                                : XVID
Codec ID/Hint                            : XviD
Duration                                : 1h 56mn
Bit rate                                : 699 Kbps
Width                                    : 656 pixels
Height                                  : 272 pixels
Display aspect ratio                    : 2.40:1
Frame rate                              : 23.976 (23976/1000) fps
Color space                              : YUV
Chroma subsampling                      : 4:2:0
Bit depth                                : 8 bits
Scan type                                : Progressive
Compression mode                        : Lossy
Bits/(Pixel*Frame)                      : 0.163
Stream size                              : 583 MiB (84%)
Writing library                          : XviD 1.2.1 (UTC 2008-12-04)

Audio
ID                                      : 1
Format                                  : MPEG Audio
Format version                          : Version 1
Format profile                          : Layer 3
Mode                                    : Joint stereo
Mode extension                          : MS Stereo
Codec ID                                : 55
Codec ID/Hint                            : MP3
Duration                                : 1h 56mn
Bit rate mode                            : Constant
Bit rate                                : 128 Kbps
Channel(s)                              : 2 channels
Sampling rate                            : 48.0 KHz
Compression mode                        : Lossy
Delay relative to video                  : 1s 176ms
Stream size                              : 107 MiB (15%)
Alignment                                : Split accross interleaves
Interleave, duration                    : 42 ms (1.00 video frame)
Interleave, preload duration            : 504 ms

Film Detayları


 Arabalar

 Arabalar

 Arabalar


Film Fragmanı


Film Detayları


Uptobox ile indir

1Fichier ile indir

1Fichier'den İndiremiyor musun? Tıklayın!


Mega ile indir

Bunun için üzgünüz ancak, bu linke sadece premium üyeler erişebilir.

Filmbol Cloud

Şuan Offine!
Şuan Offine!
sectechno Süper Üye
***
Super Üye

  • Konular9
  • Mesajlar66
  • Rep puanı 0
Teşekkürler BroserBros.Kolay gelsin.İyi çalışmalar.


Konu ile Alakalı Benzer Konular
Konular Yazar Yorumlar Okunma Son Yorum
Filmin Yayınlanma Tarihi: 2018
Gözbebeğim (Pupille) - 2018 - TR - BRRip XviD BroserBros 0 2 56 dakika önce
Son Yorum: BroserBros
Filmin Yayınlanma Tarihi: 2019
Umut Vadisi (Hope Gap) - 2019 - TR - BRRip XviD BroserBros 0 3 1 saat önce
Son Yorum: BroserBros
Filmin Yayınlanma Tarihi: 2019
Cep Herkülü: Naim Süleymanoğlu (Cep Herkülü: Naim Süleymanoğlu) - 2019 - TR - BRRip XviD BroserBros 0 84 15-09-2020, Saat: 21:51
Son Yorum: BroserBros
Filmin Yayınlanma Tarihi: 2020
Berlin, Berlin (Berlin, Berlin) - 2020 - TR - BRRip XviD BroserBros 0 80 15-09-2020, Saat: 18:15
Son Yorum: BroserBros
Filmin Yayınlanma Tarihi: 2020
Malibu Rescue: Yeni Dalga (Malibu Rescue: The Next Wave) - 2020 - TR - BRRip XviD BroserBros 0 133 13-09-2020, Saat: 20:54
Son Yorum: BroserBros

Hızlı Menü: