Filmbol Forum Film İndir 1080P v Arabalar 2 (Cars 2) - 2011 - TR+ORG - 1080P
Moderatör Alımları Başladı! Başvuru yapmak için tıklayın.
Filmbol Premium'da %50'e varan indirim fırsatı!
Arabalar 2 (Cars 2) - 2011 - TR+ORG - 1080P
BroserBros
Arabalar 2 (Cars 2) - 2011 - TR+ORG - 1080P
0
146
  • Derecelendirme: 0/5 - 0 oy
  • 1
  • 2
  • 3
  • 4
  • 5
Konuyu Okuyanlar:1 Ziyaretçi
Şuan Online!
Filmin Yayınlanma Tarihi: 2011 
Şuan Online!
BroserBros Kurucu Admin
*******
Admin

Vizyon Tarihi


19 Ağustos 2011

imdb puanı


6,1 / 170,000

süre


106 dakika

Editör Puanı


6,9 / 10

Video Format: Mkv


Matroska (.MKV)

Ses Kodek: AC3


Audio Coding 3 (AC3)

sürüm


x264 | 1080P | BluRay

Boyutlar


2,08 GB



 Arabalar 2



Arabalar serisinin 2. filmi olan Arabalar 2 filminde şimşek McQueen Mater ile birlikte İtalyada düzenlenen bir yarışa katılır. Ancak bu seferki yarış o kadar kolay değildir çünkü McQueen'in yarışacağı araba bir formula aracıdır.

Arabalar 2 (2011) (Cars 2) Filmi Imdb'den 170,000 kişi tarafından oylandı ve 6,1 puan aldı. Bu film için editör puanı 6,9 olarak belirlendi. İyi Seyirler!

Teknik Detaylar

Kod :
General
Unique ID                                : 251348812143813551923559935873620023411 (0xBD180537957B9336D824D34D710A9873)
Complete name                            : /root/Desktop/5/Arabalar.2.2011.1080p.BluRay.x264.TR.ENG.Filmbol.mkv
Format                                  : Matroska
Format version                          : Version 4 / Version 2
File size                                : 2.08 GiB
Duration                                : 1h 47mn
Overall bit rate                        : 2 786 Kbps
Movie name                              : Arabalar 2 - Cars 2 - 2011 | Filmbol.org
Encoded date                            : UTC 2020-05-17 12:36:35
Writing application                      : mkvmerge v8.8.0 ('Wind at my back') 64bit
Writing library                          : libebml v1.3.3 + libmatroska v1.4.4

Video
ID                                      : 1
Format                                  : AVC
Format/Info                              : Advanced Video Codec
Format profile                          : High@L4.1
Format settings, CABAC                  : Yes
Format settings, ReFrames                : 4 frames
Codec ID                                : V_MPEG4/ISO/AVC
Duration                                : 1h 46mn
Bit rate                                : 2 050 Kbps
Width                                    : 1 920 pixels
Height                                  : 800 pixels
Display aspect ratio                    : 2.40:1
Frame rate mode                          : Constant
Frame rate                              : 23.976 (24000/1001) fps
Color space                              : YUV
Chroma subsampling                      : 4:2:0
Bit depth                                : 8 bits
Scan type                                : Progressive
Bits/(Pixel*Frame)                      : 0.056
Stream size                              : 1.52 GiB (73%)
Title                                    : 1080P - Filmbol.org
Writing library                          : x264 core 148
Encoding settings                        : cabac=1 / ref=4 / deblock=1:-1:-1 / analyse=0x3:0x133 / me=umh / subme=9 / psy=1 / psy_rd=1.00:0.15 / mixed_ref=1 / me_range=24 / chroma_me=1 / trellis=2 / 8x8dct=1 / cqm=0 / deadzone=21,11 / fast_pskip=0 / chroma_qp_offset=-3 / threads=12 / lookahead_threads=1 / sliced_threads=0 / nr=0 / decimate=1 / interlaced=0 / bluray_compat=0 / constrained_intra=0 / bframes=3 / b_pyramid=2 / b_adapt=2 / b_bias=0 / direct=3 / weightb=1 / open_gop=0 / weightp=2 / keyint=250 / keyint_min=23 / scenecut=40 / intra_refresh=0 / rc_lookahead=60 / rc=2pass / mbtree=1 / bitrate=2050 / ratetol=1.0 / qcomp=0.60 / qpmin=0 / qpmax=69 / qpstep=4 / cplxblur=20.0 / qblur=0.5 / vbv_maxrate=31250 / vbv_bufsize=31250 / nal_hrd=none / filler=0 / ip_ratio=1.40 / aq=1:1.00
Default                                  : Yes
Forced                                  : No

Audio #1
ID                                      : 2
Format                                  : AC-3
Format/Info                              : Audio Coding 3
Mode extension                          : CM (complete main)
Format settings, Endianness              : Big
Codec ID                                : A_AC3
Duration                                : 1h 47mn
Bit rate mode                            : Constant
Bit rate                                : 640 Kbps
Channel(s)                              : 6 channels
Channel positions                        : Front: L C R, Side: L R, LFE
Sampling rate                            : 48.0 KHz
Frame rate                              : 31.250 fps (1536 spf)
Compression mode                        : Lossy
Delay relative to video                  : -43ms
Stream size                              : 490 MiB (23%)
Title                                    : Türkçe - Filmbol.org
Default                                  : Yes
Forced                                  : Yes

Audio #2
ID                                      : 3
Format                                  : AAC
Format/Info                              : Advanced Audio Codec
Format profile                          : LC
Codec ID                                : A_AAC
Duration                                : 1h 46mn
Bit rate                                : 109 Kbps
Channel(s)                              : 2 channels
Channel positions                        : Front: L R
Sampling rate                            : 48.0 KHz
Frame rate                              : 46.875 fps (1024 spf)
Compression mode                        : Lossy
Delay relative to video                  : -43ms
Stream size                              : 82.7 MiB (4%)
Title                                    : Ingilizce - Filmbol.org
Default                                  : No
Forced                                  : No

Text
ID                                      : 4
Format                                  : UTF-8
Codec ID                                : S_TEXT/UTF8
Codec ID/Info                            : UTF-8 Plain Text
Duration                                : 1h 37mn
Bit rate                                : 82 bps
Count of elements                        : 1485
Stream size                              : 59.2 KiB (0%)
Title                                    : Türkçe Altyazı - Filmbol.org
Default                                  : Yes
Forced                                  : No

Film Detayları


 Arabalar 2

 Arabalar 2

 Arabalar 2


Film Fragmanı


Film Detayları

Uptobox ile indir

1Fichier ile indir

1Fichier'den İndiremiyor musun? Tıklayın!


Bunun için üzgünüz ancak, bu linke sadece premium üyeler erişebilir.

Filmbol Cloud



Konu ile Alakalı Benzer Konular
Konular Yazar Yorumlar Okunma Son Yorum
Filmin Yayınlanma Tarihi: 2011
Harry Potter ve Ölüm Yadigarları: Bölüm 2 (2011) Türkçe Dublaj BLURAY m1080P İndi BroserBros 16 1,338 25-09-2020, Saat: 22:38
Son Yorum: uvenix
Filmin Yayınlanma Tarihi: 2018
Mogli: Orman Çocuğu (Mowgli) Türkçe Dublaj BLURAY 1080P İndir BroserBros 10 845 19-09-2020, Saat: 13:11
Son Yorum: Rocklion17
Filmin Yayınlanma Tarihi: 2020
The Hunt (Av) - 2020 - TR+ORG - 1080P BroserBros 0 316 18-09-2020, Saat: 19:28
Son Yorum: BroserBros
Filmin Yayınlanma Tarihi: 2018
Gözbebeğim (Pupille) - 2018 - TR+ORG - 1080P BroserBros 0 323 18-09-2020, Saat: 13:02
Son Yorum: BroserBros
Filmin Yayınlanma Tarihi: 2019
Umut Vadisi (Hope Gap) - 2019 - TR+ORG - 1080P BroserBros 0 319 18-09-2020, Saat: 12:52
Son Yorum: BroserBros

Hızlı Menü: