Filmbol Forum Film İndir 1080P v Aquaman (Aquaman) - 2018 - TR+ORG - 1080P
Moderatör Alımları Başladı! Başvuru yapmak için tıklayın.
Filmbol Premium'da %50'e varan indirim fırsatı!
Aquaman (Aquaman) - 2018 - TR+ORG - 1080P
BroserBros
Aquaman (Aquaman) - 2018 - TR+ORG - 1080P
0
162
  • Derecelendirme: 0/5 - 0 oy
  • 1
  • 2
  • 3
  • 4
  • 5
Konuyu Okuyanlar:1 Ziyaretçi
Şuan Offine!
Filmin Yayınlanma Tarihi: 2018 
Şuan Offine!
BroserBros Kurucu Admin
*******
Admin

Vizyon Tarihi


28 Aralık 2018

imdb puanı


7,0 / 340,000

süre


143 dakika

Editör Puanı


7,5 / 10

Video Format: Mkv


Matroska (.MKV)

Ses Kodek: AC3


Audio Coding 3 (AC3)

sürüm


x264 | 1080P | BLURAY

Boyutlar


2,74 GB



 Aquaman



Arthur Curry büyük bir bilgi edinmiştir. Bu bilgiye göre kendisi okyanus krallığının varisidir ve kral olabilecek iki kişiden birisidir. Varis olarak kendisi kral olma yolunda bir adım atar ve sinsi üvey kardeşi Orm ile bir düelloya çıkar ancak düello eşit şartlarda mı yapılacaktır?...

Aquaman (2018) (Aquaman) Filmi Imdb'den 340,000 kişi tarafından oylandı ve 7,0 puan aldı. Bu film için editör puanı 7,5 olarak belirlendi. İyi Seyirler!

Teknik Detaylar

Kod :
General
Unique ID                                : 10480260098224045095297364563431989286 (0x7E26CB77D1405051BFCBE78A4632026)
Complete name                            : /root/Desktop/4/Aquaman.2018.1080p.BluRay.x264.TR.ENG.Filmbol.mkv
Format                                  : Matroska
Format version                          : Version 4 / Version 2
File size                                : 2.74 GiB
Duration                                : 2h 23mn
Overall bit rate                        : 2 733 Kbps
Movie name                              : Aquaman - 2018 | Filmbol.org
Encoded date                            : UTC 2020-05-11 13:19:33
Writing application                      : mkvmerge v8.8.0 ('Wind at my back') 64bit
Writing library                          : libebml v1.3.3 + libmatroska v1.4.4

Video
ID                                      : 1
Format                                  : AVC
Format/Info                              : Advanced Video Codec
Format profile                          : High@L4.1
Format settings, CABAC                  : Yes
Format settings, ReFrames                : 4 frames
Codec ID                                : V_MPEG4/ISO/AVC
Duration                                : 2h 23mn
Bit rate                                : 2 150 Kbps
Width                                    : 1 920 pixels
Height                                  : 800 pixels
Display aspect ratio                    : 2.40:1
Frame rate mode                          : Constant
Frame rate                              : 23.976 (24000/1001) fps
Color space                              : YUV
Chroma subsampling                      : 4:2:0
Bit depth                                : 8 bits
Scan type                                : Progressive
Bits/(Pixel*Frame)                      : 0.058
Stream size                              : 2.15 GiB (79%)
Title                                    : 1080P
Writing library                          : x264 core 152
Encoding settings                        : cabac=1 / ref=4 / deblock=1:-1:-1 / analyse=0x3:0x133 / me=umh / subme=9 / psy=1 / psy_rd=1.00:0.15 / mixed_ref=1 / me_range=24 / chroma_me=1 / trellis=2 / 8x8dct=1 / cqm=0 / deadzone=21,11 / fast_pskip=0 / chroma_qp_offset=-3 / threads=12 / lookahead_threads=1 / sliced_threads=0 / nr=0 / decimate=1 / interlaced=0 / bluray_compat=0 / constrained_intra=0 / bframes=3 / b_pyramid=2 / b_adapt=2 / b_bias=0 / direct=3 / weightb=1 / open_gop=0 / weightp=2 / keyint=250 / keyint_min=23 / scenecut=40 / intra_refresh=0 / rc_lookahead=60 / rc=2pass / mbtree=1 / bitrate=2150 / ratetol=1.0 / qcomp=0.60 / qpmin=0 / qpmax=69 / qpstep=4 / cplxblur=20.0 / qblur=0.5 / vbv_maxrate=31250 / vbv_bufsize=31250 / nal_hrd=none / filler=0 / ip_ratio=1.40 / aq=1:1.00
Default                                  : Yes
Forced                                  : No

Audio #1
ID                                      : 2
Format                                  : AC-3
Format/Info                              : Audio Coding 3
Mode extension                          : CM (complete main)
Format settings, Endianness              : Big
Codec ID                                : A_AC3
Duration                                : 2h 23mn
Bit rate mode                            : Constant
Bit rate                                : 384 Kbps
Channel(s)                              : 6 channels
Channel positions                        : Front: L C R, Side: L R, LFE
Sampling rate                            : 48.0 KHz
Frame rate                              : 31.250 fps (1536 spf)
Compression mode                        : Lossy
Stream size                              : 394 MiB (14%)
Title                                    : Türkçe - Filmbol.org
Language                                : Turkish
Default                                  : Yes
Forced                                  : No

Audio #2
ID                                      : 3
Format                                  : AC-3
Format/Info                              : Audio Coding 3
Mode extension                          : CM (complete main)
Format settings, Endianness              : Big
Codec ID                                : A_AC3
Duration                                : 2h 23mn
Bit rate mode                            : Constant
Bit rate                                : 192 Kbps
Channel(s)                              : 2 channels
Channel positions                        : Front: L R
Sampling rate                            : 48.0 KHz
Frame rate                              : 31.250 fps (1536 spf)
Compression mode                        : Lossy
Stream size                              : 197 MiB (7%)
Title                                    : İngilizce
Language                                : English
Default                                  : No
Forced                                  : No

Text #1
ID                                      : 4
Format                                  : PGS
Muxing mode                              : zlib
Codec ID                                : S_HDMV/PGS
Codec ID/Info                            : Picture based subtitle format used on BDs/HD-DVDs
Duration                                : 2h 22mn
Bit rate                                : 6 298 bps
Count of elements                        : 2252
Stream size                              : 6.40 MiB (0%)
Title                                    : Türkçe Altyazı - SUP
Language                                : Turkish
Default                                  : No
Forced                                  : No

Text #2
ID                                      : 5
Format                                  : UTF-8
Codec ID                                : S_TEXT/UTF8
Codec ID/Info                            : UTF-8 Plain Text
Duration                                : 2h 13mn
Bit rate                                : 0 bps
Count of elements                        : 29
Stream size                              : 765 Bytes (0%)
Title                                    : KISIM
Language                                : Turkish
Default                                  : Yes
Forced                                  : Yes

Text #3
ID                                      : 6
Format                                  : UTF-8
Codec ID                                : S_TEXT/UTF8
Codec ID/Info                            : UTF-8 Plain Text
Duration                                : 2h 22mn
Bit rate                                : 36 bps
Count of elements                        : 1126
Stream size                              : 38.0 KiB (0%)
Title                                    : Türkçe Altyazı
Language                                : Turkish
Default                                  : No
Forced                                  : No

Film Detayları


 Aquaman

 Aquaman

 Aquaman


Film Fragmanı


Film Detayları

Uptobox ile indir

1Fichier ile indir

1Fichier'den İndiremiyor musun? Tıklayın!


Mega ile indir

Bunun için üzgünüz ancak, bu linke sadece premium üyeler erişebilir.

Filmbol Cloud



Konu ile Alakalı Benzer Konular
Konular Yazar Yorumlar Okunma Son Yorum
Filmin Yayınlanma Tarihi: 2019
X-Men: Dark Phoenix (2019) Türkçe Dublaj BLURAY 1080P İndir BroserBros 38 2,705 09-10-2020, Saat: 23:51
Son Yorum: egzantirik7
Filmin Yayınlanma Tarihi: 2019
Rahat Kız (An Easy Girl) - 2019 - TR+ORG - 1080P BroserBros 0 224 08-10-2020, Saat: 19:35
Son Yorum: BroserBros
Filmin Yayınlanma Tarihi: 2020
Mavi Korku 3 (Deep Blue Sea 3) - 2020 - TR+ORG - 1080P BroserBros 0 333 03-10-2020, Saat: 21:12
Son Yorum: BroserBros
Filmin Yayınlanma Tarihi: 2018
Fast Color: Gücünü Serbest Bırak (Fast Color) - 2018 - TR+ORG - 1080P BroserBros 0 322 03-10-2020, Saat: 16:47
Son Yorum: BroserBros
Filmin Yayınlanma Tarihi: 2019
Benim Şapşik Köpeğim (Mon chien Stupide) - 2019 - TR+ORG - 1080P BroserBros 0 155 02-10-2020, Saat: 21:35
Son Yorum: BroserBros

Hızlı Menü: