Filmbol Forum Film İndir BRRip XviD v Angry Birds Filmi 2 (The Angry Birds Movie 2) Türkçe Dublaj Brrip Xvid İndir
Filmbol'da moderatör olmak ister misiniz? Bizimle iletişime geçmek için tıklayın!
Angry Birds Filmi 2 (The Angry Birds Movie 2) Türkçe Dublaj Brrip Xvid İndir
BroserBros
Angry Birds Filmi 2 (The Angry Birds Movie 2) Türkçe Dublaj Brrip Xvid İndir
2
367
  • Derecelendirme: 0/5 - 0 oy
  • 1
  • 2
  • 3
  • 4
  • 5
Konuyu Okuyanlar:1 Ziyaretçi
Şuan Online!
Filmin Yayınlanma Tarihi: 2019 
Şuan Online!
BroserBros Kurucu Admin
*******
Admin

Vizyon Tarihi


16 Ağustos 2019

imdb puanı


6,4 / 12,000

süre


97 dakika

Editör Puanı


6,0

Video Format: Avi


Audio Video Interleave (.AVI)

Ses Kodek: MP3


MPEG-1 Audio Layer III (MP3)

sürüm


h263 | Brrip Xvid

Boyutlar


1,18



Angry Birds Filmi 2 (The Angry Birds Movie 2)



Film Detayları

Sevilen bilgisayar oyunundan beyazperdeye uyarlanan Angry Birds filminin devam halkası olan yapımda, uçamayan kuşlar ve yeşil domuzların yaşadığı maceralar konu ediliyor. Kuş ve Domuz adaları büyük bir tehlike ile karşı karşıyadır. Yaşadıkları yeri korumak için harekete geçen Red, Chuck, Bomba ve Yüce Kartal bir süper takım oluşturmaya karar verir. Chuck’ın kız kardeşi Silver’ı da takıma alan ekip, istikrarsız bir ateşkes başlatmak ve yurtlarını kurtarmak için domuz Leonard, asistanı Courtney ve teknik uzman domuz Garry ile de iş birliği yapar. Güçlerini birleştiren ekip, tehlike altında bulunan yurtlarını kurtarabilecekler midir?

Angry Birds Filmi 2 (The Angry Birds Movie 2) Filmi Imdb'den 12,000 kişi tarafından oylandı ve 6,4 puan aldı. Bu film için editör puanı 6,0 olarak belirlendi. İyi Seyirler!


Teknik Detaylar


Kod :
General
Complete name                            :  Angry.Birds.Filmi.2.2019.BRRip.XviD.TR.Filmbol.avi
Format                                   : AVI
Format/Info                              : Audio Video Interleave
File size                                : 1.18 GiB
Duration                                 : 1h 36mn
Overall bit rate                         : 1 740 Kbps

Video
ID                                       : 0
Format                                   : MPEG-4 Visual
Format profile                           : Simple@L5
Format settings, BVOP                    : No
Format settings, QPel                    : No
Format settings, GMC                     : No warppoints
Format settings, Matrix                  : Default (H.263)
Codec ID                                 : XVID
Codec ID/Hint                            : XviD
Duration                                 : 1h 36mn
Bit rate                                 : 1 599 Kbps
Width                                    : 720 pixels
Height                                   : 388 pixels
Display aspect ratio                     : 1.85:1
Frame rate                               : 23.976 fps
Color space                              : YUV
Chroma subsampling                       : 4:2:0
Bit depth                                : 8 bits
Scan type                                : Progressive
Compression mode                         : Lossy
Bits/(Pixel*Frame)                       : 0.239
Stream size                              : 1.08 GiB (92%)
Writing library                          : Lavc58.35.100

Audio
ID                                       : 1
Format                                   : MPEG Audio
Format version                           : Version 1
Format profile                           : Layer 3
Mode                                     : Joint stereo
Mode extension                           : MS Stereo
Codec ID                                 : 55
Codec ID/Hint                            : MP3
Duration                                 : 1h 36mn
Bit rate mode                            : Constant
Bit rate                                 : 128 Kbps
Channel(s)                               : 2 channels
Sampling rate                            : 48.0 KHz
Compression mode                         : Lossy
Stream size                              : 88.6 MiB (7%)
Alignment                                : Aligned on interleaves
Interleave, duration                     : 24 ms (0.58 video frame)

Film Detayları


Angry Birds Filmi 2

Angry Birds Filmi 2

Angry Birds Filmi 2


Film Fragmanı


Film Detayları

Brrip İndir



Uptobox ile indir

1Fichier ile indir

1Fichier'den İndiremiyor musun? Tıklayın!


Mega ile indir

Şuan Offine!
Şuan Offine!
haytoki Uzman Üye
**
Uzman Üye

  • Konular0
  • Mesajlar14
  • Rep puanı 0
teşekkürler.
Şuan Offine!
Şuan Offine!
stb Uzman Üye
**
Uzman Üye

  • Konular0
  • Mesajlar14
  • Rep puanı 0
teşekkürler.


Konu ile Alakalı Benzer Konular
Konular Yazar Yorumlar Okunma Son Yorum
Filmin Yayınlanma Tarihi: 2020
Zengo (Zengo) - 2020 - TR - BRRip XviD BroserBros 0 21 , Saat: 14:08
Son Yorum: BroserBros
Filmin Yayınlanma Tarihi: 2019
Yalan Dolan (Yalan Dolan) - 2019 - TR - BRRip XviD BroserBros 0 20 , Saat: 13:57
Son Yorum: BroserBros
Filmin Yayınlanma Tarihi: 2019
Hatıra (The Souvenir) - 2019 - TR - BRRip XviD BroserBros 0 20 , Saat: 13:04
Son Yorum: BroserBros
Filmin Yayınlanma Tarihi: 2020
My Spy (My Spy) - 2020 - TR - BRRip XviD BroserBros 0 7 , Saat: 12:53
Son Yorum: BroserBros
Filmin Yayınlanma Tarihi: 2019
Luce (Luce) - 2019 - TR - BRRip XviD BroserBros 0 31 28-11-2020, Saat: 17:58
Son Yorum: BroserBros

Hızlı Menü: