Filmbol Forum Film İndir 1080P v Angry Birds Filmi 2 (The Angry Birds Movie 2) Türkçe Dublaj 1080P İndir
Mega linklerinin şikayet edilmemesi için global erişime kapatıp sadece yorum yapanlara açıyoruz. Bu linkleri gizleme işlemini mecburen yapıyoruz ve yorum yapmanızın siteye değil size faydası vardır. Teşekürler yazmayı çok görüp, Random/Spam mesajlar atarak Mega linklerini açmaya çalışan kullanıcılara önce süresiz ban, devam ederse IP ban atacağız.
Filmbol'da moderatör olmak ister misiniz? Bizimle iletişime geçmek için tıklayın!
Angry Birds Filmi 2 (The Angry Birds Movie 2) Türkçe Dublaj 1080P İndir
BroserBros
Angry Birds Filmi 2 (The Angry Birds Movie 2) Türkçe Dublaj 1080P İndir
8
805
  • Derecelendirme: 0/5 - 0 oy
  • 1
  • 2
  • 3
  • 4
  • 5
Konuyu Okuyanlar:1 Ziyaretçi
Şuan Online!
Filmin Yayınlanma Tarihi: 2019 
WWW
Şuan Online!
BroserBros Kurucu Admin
*******
Admin








Angry Birds Filmi 2 (The Angry Birds Movie 2)




Teknik Detaylar


Kod :
General
Complete name                            : Angry.Birds.Filmi.2.2019.1080p.BLURAY.x264.TR.Filmbol.mkv
Format                                   : Matroska
Format version                           : Version 4 / Version 2
File size                                : 1.68 GiB
Duration                                 : 1h 36mn
Overall bit rate                         : 2 485 Kbps
Movie name                               : Angry Birds Filmi 2 (2019) - Filmbol.org
Encoded date                             : UTC 2019-12-21 12:56:10
Writing application                      : mkvmerge v35.0.0 ('All The Love In The World') 64-bit
Writing library                          : libebml v1.3.9 + libmatroska v1.5.2

Video
ID                                       : 1
Format                                   : AVC
Format/Info                              : Advanced Video Codec
Format profile                           : [email protected]
Format settings, CABAC                   : Yes
Format settings, ReFrames                : 4 frames
Codec ID                                 : V_MPEG4/ISO/AVC
Duration                                 : 1h 36mn
Bit rate                                 : 2 100 Kbps
Width                                    : 1 920 pixels
Height                                   : 1 040 pixels
Display aspect ratio                     : 1.85:1
Frame rate mode                          : Constant
Frame rate                               : 23.976 (24000/1001) fps
Color space                              : YUV
Chroma subsampling                       : 4:2:0
Bit depth                                : 8 bits
Scan type                                : Progressive
Bits/(Pixel*Frame)                       : 0.044
Stream size                              : 1.42 GiB (84%)
Title                                    : 1080P - Filmbol.org
Writing library                          : x264 core 158
Default                                  : Yes
Forced                                   : No

Audio
ID                                       : 2
Format                                   : AC-3
Format/Info                              : Audio Coding 3
Mode extension                           : CM (complete main)
Format settings, Endianness              : Big
Codec ID                                 : A_AC3
Duration                                 : 1h 36mn
Bit rate mode                            : Constant
Bit rate                                 : 384 Kbps
Channel(s)                               : 6 channels
Channel positions                        : Front: L C R, Side: L R, LFE
Sampling rate                            : 48.0 KHz
Frame rate                               : 31.250 fps (1536 spf)
Compression mode                         : Lossy
Stream size                              : 266 MiB (15%)
Title                                    : Türkçe - Filmbol.org
Language                                 : Turkish
Default                                  : Yes
Forced                                   : No

Film Detayları


Angry Birds Filmi 2

Angry Birds Filmi 2

Angry Birds Filmi 2


Film Fragmanı


Film Detayları

Mini 1080P İndir



Uptobox ile indir

1Fichier ile indir

1Fichier'den İndiremiyor musun? Tıklayın!


Mega linki şuan da gizli. Kullanıma açmak için konuya yorum yapın ve ardından sayfayı yenileyin.

Mega


MediaFire ile indir

Şuan Offine!
Şuan Offine!
nasit Yeni Üye
*
Üye

  • Konular0
  • Mesajlar4
  • Rep puanı 0
teşekkürler.
Şuan Offine!
Şuan Offine!
halaskar79 Yeni Üye
*
Üye

  • Konular0
  • Mesajlar2
  • Rep puanı 0
Teşekkürler
Şuan Offine!
Şuan Offine!
HoRSeMaN Yeni Üye
*
Üye

  • Konular0
  • Mesajlar2
  • Rep puanı 0
tesekkürler
Şuan Offine!
Şuan Offine!
Rustu_1905 Uzman Üye
**
Uzman Üye

  • Konular0
  • Mesajlar14
  • Rep puanı 0
çok iyi
Şuan Offine!
Şuan Offine!
Brksvsn Uzman Üye
**
Uzman Üye

  • Konular0
  • Mesajlar12
  • Rep puanı 0
J uzun süre devam ediyor o kadar çok basit bir şekilde paketlenmişti herkese tavsiye ederim çok güzel bir klibin bu içimdeki yangın full izle Türkçe dublaj izle Türkçe
Şuan Offine!
Şuan Offine!
gitarci Yeni Üye
*
Üye

  • Konular0
  • Mesajlar4
  • Rep puanı 0
Teşekkürler Smile

ooo eğlenceli Smile
Şuan Offine!
Şuan Offine!
acfest Yeni Üye
*
Üye

  • Konular0
  • Mesajlar2
  • Rep puanı 0
Teşekürlerrrr  Smile
Şuan Offine!
Şuan Offine!
yasharu Yeni Üye
*
Üye

  • Konular0
  • Mesajlar2
  • Rep puanı 0
Angel


Konu ile Alakalı Benzer Konular
Konular Yazar Yorumlar Okunma Son Yorum
Filmin Yayınlanma Tarihi: 2016
Senden Önce Ben (Me Before You) (2016) Türkçe Dublaj 1080P İndir BroserBros 2 2,939 1 saat önce
Son Yorum: mussa
Filmin Yayınlanma Tarihi: 2015
Ex Machina (2015) Türkçe Dublaj 1080P İndir BroserBros 13 3,310 1 saat önce
Son Yorum: mussa
Filmin Yayınlanma Tarihi: 2018
Venom: Zehirli Öfke (Venom) - 2018 - TR+ORG - 1080P | tt1270797 BroserBros 45 4,746 1 saat önce
Son Yorum: BroserBros
Filmin Yayınlanma Tarihi: 2016
Batman v Superman: Adaletin Şafağı (Batman v Superman: Dawn of Justice) - 2016 - TR+ORG - 1080P | tt2975590 BroserBros 3 2,856 1 saat önce
Son Yorum: BroserBros
Filmin Yayınlanma Tarihi: 2020
Yarını Yokmuş Gibi (Palm Springs) - 2020 - TR+ORG - 1080P | tt9484998 TheSteeL 0 20 , Saat: 01:18
Son Yorum: TheSteeL

Hızlı Menü: