Filmbol Forum Film İndir BRRip XviD v Amerikan Pastası 7: Aşk Kitabı (APP: The Book of Love) - 2009 - TR - BRRip XviD
Moderatör Alımları Başladı! Başvuru yapmak için tıklayın.
Filmbol Premium'da %50'e varan indirim fırsatı!
Amerikan Pastası 7: Aşk Kitabı (APP: The Book of Love) - 2009 - TR - BRRip XviD
BroserBros
Amerikan Pastası 7: Aşk Kitabı (APP: The Book of Love) - 2009 - TR - BRRip XviD
1
177
  • Derecelendirme: 0/5 - 0 oy
  • 1
  • 2
  • 3
  • 4
  • 5
Konuyu Okuyanlar:1 Ziyaretçi
Şuan Offine!
Filmin Yayınlanma Tarihi: 2009 
Şuan Offine!
BroserBros Kurucu Admin
*******
Admin

Vizyon Tarihi


22 Aralık 2009

imdb puanı


4,8 / 45,000

süre


93 dakika

Editör Puanı


5,5 / 10

Video Format: Avi


Audio Video Interleave (.AVI)

Ses Kodek: MP3


MPEG-1 Audio Layer III (MP3)

sürüm


h263 | BRRip XviD

Boyutlar


0,70 GB



 Amerikan Pastası 7: Aşk Kitabı



Amerikan Pastası serisinin ilk filminden on yıl geçmiştir. Bu filmde ise üç yeni bakire katılmıştır ve onların erkek olma yolundaki zorluklarını aktarmakta.. Bu bakireler bir gün East Great Falls High'un kütüphanesindeki İncil'i keşfeder...

Amerikan Pastası 7: Aşk Kitabı (2009) (APP: The Book of Love) Filmi Imdb'den 45,000 kişi tarafından oylandı ve 4,8 puan aldı. Bu film için editör puanı 5,5 olarak belirlendi. İyi Seyirler!

Teknik Detaylar

Kod :
General
Complete name                            : /root/Desktop/4/Amerikan.Pastası.7.Aşk.Kitabı.2009.BRRip.XviD.TR.Filmbol.avi
Format                                  : AVI
Format/Info                              : Audio Video Interleave
File size                                : 701 MiB
Duration                                : 1h 33mn
Overall bit rate                        : 1 049 Kbps
Writing application                      : VirtualDubMod 1.5.10.2 (build 2542/release)
Writing library                          : VirtualDubMod build 2542/release

Video
ID                                      : 0
Format                                  : MPEG-4 Visual
Format profile                          : Advanced Simple@L5
Format settings, BVOP                    : 1
Format settings, QPel                    : No
Format settings, GMC                    : No warppoints
Format settings, Matrix                  : Default (H.263)
Muxing mode                              : Packed bitstream
Codec ID                                : XVID
Codec ID/Hint                            : XviD
Duration                                : 1h 33mn
Bit rate                                : 912 Kbps
Width                                    : 608 pixels
Height                                  : 336 pixels
Display aspect ratio                    : 16:9
Frame rate                              : 25.000 fps
Color space                              : YUV
Chroma subsampling                      : 4:2:0
Bit depth                                : 8 bits
Scan type                                : Progressive
Compression mode                        : Lossy
Bits/(Pixel*Frame)                      : 0.179
Stream size                              : 609 MiB (87%)
Writing library                          : XviD 1.2.1 (UTC 2008-12-04)

Audio
ID                                      : 1
Format                                  : MPEG Audio
Format version                          : Version 1
Format profile                          : Layer 3
Mode                                    : Joint stereo
Mode extension                          : MS Stereo
Codec ID                                : 55
Codec ID/Hint                            : MP3
Duration                                : 1h 33mn
Bit rate mode                            : Constant
Bit rate                                : 128 Kbps
Channel(s)                              : 2 channels
Sampling rate                            : 48.0 KHz
Compression mode                        : Lossy
Stream size                              : 85.5 MiB (12%)
Alignment                                : Aligned on interleaves
Interleave, duration                    : 40 ms (1.00 video frame)
Interleave, preload duration            : 504 ms

Film Detayları


 Amerikan Pastası 7: Aşk Kitabı

 Amerikan Pastası 7: Aşk Kitabı

 Amerikan Pastası 7: Aşk Kitabı


Film Fragmanı


Film Detayları


Uptobox ile indir

1Fichier ile indir

1Fichier'den İndiremiyor musun? Tıklayın!


Mega ile indir

Bunun için üzgünüz ancak, bu linke sadece premium üyeler erişebilir.

Filmbol Cloud

Şuan Offine!
Şuan Offine!
sectechno Süper Üye
***
Super Üye

  • Konular9
  • Mesajlar67
  • Rep puanı 0
Teşekkürler BroserBros.Eline,emeğine sağlık,kolay gelsin.İyi çalışmalar.


Konu ile Alakalı Benzer Konular
Konular Yazar Yorumlar Okunma Son Yorum
Filmin Yayınlanma Tarihi: 2014
Lucy (2014) Türkçe Dublaj BRRip XviD İndir BroserBros 1 255 19-09-2020, Saat: 00:56
Son Yorum: sectechno
Filmin Yayınlanma Tarihi: 2020
The Hunt (Av) - 2020 - TR - BRRip XviD BroserBros 0 177 18-09-2020, Saat: 19:28
Son Yorum: BroserBros
Filmin Yayınlanma Tarihi: 2018
Gözbebeğim (Pupille) - 2018 - TR - BRRip XviD BroserBros 0 177 18-09-2020, Saat: 13:02
Son Yorum: BroserBros
Filmin Yayınlanma Tarihi: 2019
Umut Vadisi (Hope Gap) - 2019 - TR - BRRip XviD BroserBros 0 177 18-09-2020, Saat: 12:50
Son Yorum: BroserBros
Filmin Yayınlanma Tarihi: 2019
Cep Herkülü: Naim Süleymanoğlu (Cep Herkülü: Naim Süleymanoğlu) - 2019 - TR - BRRip XviD BroserBros 0 108 15-09-2020, Saat: 21:51
Son Yorum: BroserBros

Hızlı Menü: