Filmbol Forum Film İndir BRRip XviD v Amerikan Pastası 6: Beta Evi (American Pie: Beta House) - 2007 - TR - BRRip XviD
Moderatör Alımları Başladı! Başvuru yapmak için tıklayın.
Filmbol Premium'da %50'e varan indirim fırsatı!
Amerikan Pastası 6: Beta Evi (American Pie: Beta House) - 2007 - TR - BRRip XviD
BroserBros
Amerikan Pastası 6: Beta Evi (American Pie: Beta House) - 2007 - TR - BRRip XviD
1
96
  • Derecelendirme: 0/5 - 0 oy
  • 1
  • 2
  • 3
  • 4
  • 5
Konuyu Okuyanlar:1 Ziyaretçi
Şuan Online!
Filmin Yayınlanma Tarihi: 2007 
Şuan Online!
BroserBros Kurucu Admin
*******
Admin

Vizyon Tarihi


21 Aralık 2007

imdb puanı


5,3 / 60,000

süre


85 dakika

Editör Puanı


5,9 / 10

Video Format: Avi


Audio Video Interleave (.AVI)

Ses Kodek: MP3


MPEG-1 Audio Layer III (MP3)

sürüm


h263 | BRRip XviD

Boyutlar


0,70 GB



 Amerikan Pastası 6: Beta Evi



Erik ve Cooze artık üniversiteli olmuştur. Artık bakireliklerini bitirmenin tam da vaktidir. Üstelik Dwight Stifler'in başkanlık ettiği Beta Evine de katılmışlardır..

Amerikan Pastası 6: Beta Evi (2007) (American Pie: Beta House) Filmi Imdb'den 60,000 kişi tarafından oylandı ve 5,3 puan aldı. Bu film için editör puanı 5,9 olarak belirlendi. İyi Seyirler!

Teknik Detaylar

Kod :
General
Complete name                            : /root/Desktop/3/Amerikan.Pastas.6.Parti.Evi.BRRip.XviD.TR.Filmbol.avi
Format                                  : AVI
Format/Info                              : Audio Video Interleave
File size                                : 701 MiB
Duration                                : 1h 23mn
Overall bit rate                        : 1 168 Kbps
Writing application                      : VirtualDubMod 1.5.4.1 (build 2178/release)
Writing library                          : VirtualDubMod build 2178/release
segm                                    : 

Video
ID                                      : 0
Format                                  : MPEG-4 Visual
Format profile                          : Advanced Simple@L5
Format settings, BVOP                    : 1
Format settings, QPel                    : No
Format settings, GMC                    : No warppoints
Format settings, Matrix                  : Default (H.263)
Muxing mode                              : Packed bitstream
Codec ID                                : XVID
Codec ID/Hint                            : XviD
Duration                                : 1h 23mn
Bit rate                                : 1 030 Kbps
Width                                    : 608 pixels
Height                                  : 336 pixels
Display aspect ratio                    : 16:9
Frame rate                              : 25.000 fps
Color space                              : YUV
Chroma subsampling                      : 4:2:0
Bit depth                                : 8 bits
Scan type                                : Progressive
Compression mode                        : Lossy
Bits/(Pixel*Frame)                      : 0.202
Stream size                              : 618 MiB (88%)
Writing library                          : XviD 1.2.1 (UTC 2008-12-04)

Audio
ID                                      : 1
Format                                  : MPEG Audio
Format version                          : Version 1
Format profile                          : Layer 3
Mode                                    : Joint stereo
Codec ID                                : 55
Codec ID/Hint                            : MP3
Duration                                : 1h 23mn
Bit rate mode                            : Constant
Bit rate                                : 128 Kbps
Channel(s)                              : 2 channels
Sampling rate                            : 48.0 KHz
Compression mode                        : Lossy
Stream size                              : 76.8 MiB (11%)
Alignment                                : Aligned on interleaves
Interleave, duration                    : 40 ms (1.00 video frame)
Interleave, preload duration            : 504 ms
Writing library                          : LAME3.98r
Encoding settings                        : -m j -V 4 -q 2 -lowpass 17 -b 128

Film Detayları


 Amerikan Pastası 6: Beta Evi

 Amerikan Pastası 6: Beta Evi

 Amerikan Pastası 6: Beta Evi


Film Fragmanı


Film Detayları


Uptobox ile indir

1Fichier ile indir

1Fichier'den İndiremiyor musun? Tıklayın!


Mega ile indir

Bunun için üzgünüz ancak, bu linke sadece premium üyeler erişebilir.

Filmbol Cloud

Şuan Offine!
Şuan Offine!
sectechno Süper Üye
***
Super Üye

  • Konular4
  • Mesajlar58
  • Rep puanı 0
Teşekkürler BroserBros.Emeğine sağlık,kolay gelsin.İyi çalışmalar.


Konu ile Alakalı Benzer Konular
Konular Yazar Yorumlar Okunma Son Yorum
Filmin Yayınlanma Tarihi: 2014
Lego Filmi (The Lego Movie) - 2014 - TR - BRRip XviD BroserBros 0 16 9 saat önce
Son Yorum: BroserBros
Filmin Yayınlanma Tarihi: 2014
Nuh: Büyük Tufan (Noah) - 2014 - TR - BRRip XviD BroserBros 0 18 10 saat önce
Son Yorum: BroserBros
Filmin Yayınlanma Tarihi: 2014
Yarının Sınırında (Edge of Tomorrow) - 2014 - TR - BRRip XviD BroserBros 0 29 , Saat: 20:40
Son Yorum: BroserBros
Filmin Yayınlanma Tarihi: 2014
Hız Tutkusu (Need for Speed) - 2014 - TR - BRRip XviD BroserBros 3 88 , Saat: 12:10
Son Yorum: BroserBros
Filmin Yayınlanma Tarihi: 2014
300: Bir İmparatorluğun Yükselişi (300: Rise of an Empire - 300 Spartalı 2) - 2014 - TR - BRRip XviD BroserBros 0 62 04-06-2020, Saat: 13:39
Son Yorum: BroserBros

Hızlı Menü: