Filmbol Forum Film İndir 1080P v Amerikan Pastası 6: Beta Evi (American Pie: Beta House) - 2007 - TR - 1080P
Amerikan Pastası 6: Beta Evi (American Pie: Beta House) - 2007 - TR - 1080P
BroserBros
Amerikan Pastası 6: Beta Evi (American Pie: Beta House) - 2007 - TR - 1080P
0
67
  • Derecelendirme: 0/5 - 0 oy
  • 1
  • 2
  • 3
  • 4
  • 5
Konuyu Okuyanlar:1 Ziyaretçi
Şuan Online!
Filmin Yayınlanma Tarihi: 2007 
Şuan Online!
BroserBros Kurucu Admin
*******
Admin

Vizyon Tarihi


21 Aralık 2007

imdb puanı


5,3 / 60,000

süre


85 dakika

Editör Puanı


5,9 / 10

Video Format: Mkv


Matroska (.MKV)

Ses Kodek: AC3


Audio Coding 3 (AC3)

sürüm


x264 | 1080P | BLURAY - UNRATED

Boyutlar


2,148 GB



 Amerikan Pastası 6: Beta Evi



Erik ve Cooze artık üniversiteli olmuştur. Artık bakireliklerini bitirmenin tam da vaktidir. Üstelik Dwight Stifler'in başkanlık ettiği Beta Evine de katılmışlardır..

Amerikan Pastası 6: Beta Evi (2007) (American Pie: Beta House) Filmi Imdb'den 60,000 kişi tarafından oylandı ve 5,3 puan aldı. Bu film için editör puanı 5,9 olarak belirlendi. İyi Seyirler!

Teknik Detaylar

Kod :
General
Unique ID                                : 186342537957400500714024058018130429328 (0x8C304472C9C05B4A871248829E120590)
Complete name                            : /root/Desktop/3/Amerikan.Pastası.6.Parti.Evi.2007.Unrated.1080p.BluRay.x264.TR.Filmbol.mkv
Format                                  : Matroska
Format version                          : Version 4 / Version 2
File size                                : 2.18 GiB
Duration                                : 1h 24mn
Overall bit rate                        : 3 698 Kbps
Movie name                              : Amerikan Pastası 6 - Beta Evi (2007) - Filmbol.org
Encoded date                            : UTC 2020-04-26 11:13:27
Writing application                      : mkvmerge v8.8.0 ('Wind at my back') 64bit
Writing library                          : libebml v1.3.3 + libmatroska v1.4.4

Video
ID                                      : 1
Format                                  : AVC
Format/Info                              : Advanced Video Codec
Format profile                          : Baseline@L1.3
Format settings, CABAC                  : No
Format settings, ReFrames                : 1 frame
Format settings, GOP                    : M=1, N=12
Codec ID                                : V_MPEG4/ISO/AVC
Duration                                : 1h 23mn
Bit rate                                : 3 537 Kbps
Width                                    : 1 920 pixels
Height                                  : 1 080 pixels
Display aspect ratio                    : 16:9
Frame rate mode                          : Constant
Frame rate                              : 23.976 (24000/1001) fps
Color space                              : YUV
Chroma subsampling                      : 4:2:0
Bit depth                                : 8 bits
Scan type                                : Progressive
Bits/(Pixel*Frame)                      : 0.071
Stream size                              : 2.06 GiB (95%)
Title                                    : 1080P - Filmbol.org
Default                                  : Yes
Forced                                  : No

Audio
ID                                      : 2
Format                                  : MPEG Audio
Format version                          : Version 1
Format profile                          : Layer 3
Mode                                    : Joint stereo
Mode extension                          : MS Stereo
Codec ID                                : A_MPEG/L3
Codec ID/Hint                            : MP3
Duration                                : 1h 24mn
Bit rate mode                            : Constant
Bit rate                                : 192 Kbps
Channel(s)                              : 2 channels
Sampling rate                            : 48.0 KHz
Frame rate                              : 41.667 fps (1152 spf)
Compression mode                        : Lossy
Stream size                              : 116 MiB (5%)
Title                                    : Türkçe
Writing library                          : LAME3.97
Language                                : Turkish
Default                                  : Yes
Forced                                  : No

Film Detayları


 Amerikan Pastası 6: Beta Evi

 Amerikan Pastası 6: Beta Evi

 Amerikan Pastası 6: Beta Evi


Film Fragmanı


Film Detayları

Uptobox ile indir

1Fichier ile indir

1Fichier'den İndiremiyor musun? Tıklayın!


Mega ile indir

Bunun için üzgünüz ancak, bu linke sadece premium üyeler erişebilir.

Filmbol Cloud



Konu ile Alakalı Benzer Konular
Konular Yazar Yorumlar Okunma Son Yorum
Filmin Yayınlanma Tarihi: 2014
Transformers: Kayıp Çağ (Transformers: Age of Extinction) - 2014 - TR+ORG - 1080P BroserBros 0 25 , Saat: 23:16
Son Yorum: BroserBros
Filmin Yayınlanma Tarihi: 2019
Queen & Slim (Queen ve Slim) - 2019 - TR+ORG - 1080P BroserBros 0 22 , Saat: 22:54
Son Yorum: BroserBros
Filmin Yayınlanma Tarihi: 2015
Minyonlar (Minions) - 2015 - TR+ORG - 1080P BroserBros 0 20 , Saat: 22:35
Son Yorum: BroserBros
Filmin Yayınlanma Tarihi: 2014
Herkül: Özgürlük Savaşçısı (Hercules) - 2014 - TR+ORG - 1080P BroserBros 0 18 , Saat: 18:15
Son Yorum: BroserBros
Filmin Yayınlanma Tarihi: 2018
Mamma Mia! Yeniden Başlıyoruz (Mamma Mia! Here We Go Again) - 2018 - TR+ORG - 1080P BroserBros 0 46 01-06-2020, Saat: 15:59
Son Yorum: BroserBros

Hızlı Menü: