Filmbol Forum Film İndir 720P v Amerikan Pastası 5: Çıplak Yol (The Naked Mile) - 2006 - TR - 720P
Amerikan Pastası 5: Çıplak Yol (The Naked Mile) - 2006 - TR - 720P
BroserBros
Amerikan Pastası 5: Çıplak Yol (The Naked Mile) - 2006 - TR - 720P
0
66
  • Derecelendirme: 0/5 - 0 oy
  • 1
  • 2
  • 3
  • 4
  • 5
Konuyu Okuyanlar:1 Ziyaretçi
Şuan Online!
Filmin Yayınlanma Tarihi: 2006 
Şuan Online!
BroserBros Kurucu Admin
*******
Admin

Vizyon Tarihi


19 Aralık 2006

imdb puanı


5,1 / 65,000

süre


97 dakika

Editör Puanı


5,8 / 10

Video Format: Mkv


Matroska (.MKV)

Ses Kodek: AC3


Audio Coding 3 (AC3)

sürüm


x264 | 720P | BLURAY

Boyutlar


0,90 GB



 Amerikan Pastası 5: Çıplak Yol



Erik lisede de bir iş yapamamış ve yine bakir olarak ayrılmıştır. Bir şeyler yapması gerektiğini düşünen Erik, bu konu hakkında ne yapacağını bilmez. En sonunda Çıplak Yol isimli bir yarışmaya katılır ve şansını burada aramaya karar verir. Ancak bu yarışma oldukça utanç verici ve rezil bir yarışmadır...

Amerikan Pastası 5: Çıplak Yol (2006) (The Naked Mile) Filmi Imdb'den 65,000 kişi tarafından oylandı ve 5,1 puan aldı. Bu film için editör puanı 5,8 olarak belirlendi. İyi Seyirler!

Teknik Detaylar

Kod :
General
Unique ID                                : 144998034765083962630778766523127744654 (0x6D159B0F5C5F5ABE5FA4FDD85656C88E)
Complete name                            : /root/Desktop/4/Amerikan.Pastası.5.Çıplak.Yol.2006.720p.BluRay.x264.TR.Filmbol.mkv
Format                                  : Matroska
Format version                          : Version 4 / Version 2
File size                                : 905 MiB
Duration                                : 1h 41mn
Overall bit rate                        : 1 243 Kbps
Movie name                              : Amerikan Pastası 5 - Çıplak Yol (2006) - Filmbol.org
Encoded date                            : UTC 2020-04-24 12:34:55
Writing application                      : mkvmerge v8.8.0 ('Wind at my back') 64bit
Writing library                          : libebml v1.3.3 + libmatroska v1.4.4

Video
ID                                      : 1
Format                                  : AVC
Format/Info                              : Advanced Video Codec
Format profile                          : High@L4.1
Format settings, CABAC                  : Yes
Format settings, ReFrames                : 8 frames
Codec ID                                : V_MPEG4/ISO/AVC
Duration                                : 1h 41mn
Bit rate                                : 1 050 Kbps
Width                                    : 1 280 pixels
Height                                  : 692 pixels
Display aspect ratio                    : 1.85:1
Frame rate mode                          : Constant
Frame rate                              : 23.976 (24000/1001) fps
Color space                              : YUV
Chroma subsampling                      : 4:2:0
Bit depth                                : 8 bits
Scan type                                : Progressive
Bits/(Pixel*Frame)                      : 0.049
Stream size                              : 764 MiB (84%)
Title                                    : 720P - Filmbol.org
Writing library                          : x264 core 152 r2851 ba24899
Encoding settings                        : cabac=1 / ref=8 / deblock=1:-1:-1 / analyse=0x3:0x133 / me=umh / subme=9 / psy=1 / psy_rd=1.00:0.15 / mixed_ref=1 / me_range=32 / chroma_me=1 / trellis=2 / 8x8dct=1 / cqm=0 / deadzone=21,11 / fast_pskip=1 / chroma_qp_offset=-3 / threads=12 / lookahead_threads=1 / sliced_threads=0 / nr=0 / decimate=1 / interlaced=0 / bluray_compat=0 / constrained_intra=0 / bframes=3 / b_pyramid=2 / b_adapt=2 / b_bias=0 / direct=3 / weightb=1 / open_gop=0 / weightp=2 / keyint=230 / keyint_min=23 / scenecut=40 / intra_refresh=0 / rc_lookahead=60 / rc=2pass / mbtree=1 / bitrate=1050 / ratetol=1.0 / qcomp=0.60 / qpmin=0 / qpmax=69 / qpstep=4 / cplxblur=20.0 / qblur=0.5 / ip_ratio=1.40 / aq=1:1.00
Language                                : Hindi
Default                                  : Yes
Forced                                  : Yes
Color range                              : Limited
Color primaries                          : BT.709
Transfer characteristics                : BT.709
Matrix coefficients                      : BT.709

Audio
ID                                      : 2
Format                                  : AC-3
Format/Info                              : Audio Coding 3
Mode extension                          : CM (complete main)
Format settings, Endianness              : Big
Codec ID                                : A_AC3
Duration                                : 1h 41mn
Bit rate mode                            : Constant
Bit rate                                : 192 Kbps
Channel(s)                              : 2 channels
Channel positions                        : Front: L R
Sampling rate                            : 44.1 KHz
Frame rate                              : 28.711 fps (1536 spf)
Compression mode                        : Lossy
Delay relative to video                  : 2s 500ms
Stream size                              : 140 MiB (15%)
Title                                    : Türkçe
Default                                  : Yes
Forced                                  : No

Film Detayları


 Amerikan Pastası 5: Çıplak Yol

 Amerikan Pastası 5: Çıplak Yol

 Amerikan Pastası 5: Çıplak Yol


Film Fragmanı


Film Detayları

Uptobox ile indir

1Fichier ile indir

1Fichier'den İndiremiyor musun? Tıklayın!


Mega ile indir

Bunun için üzgünüz ancak, bu linke sadece premium üyeler erişebilir.

Filmbol Cloud



Konu ile Alakalı Benzer Konular
Konular Yazar Yorumlar Okunma Son Yorum
Filmin Yayınlanma Tarihi: 2014
Transformers: Kayıp Çağ (Transformers: Age of Extinction) - 2014 - TR+ORG - 720P BroserBros 0 21 , Saat: 23:15
Son Yorum: BroserBros
Filmin Yayınlanma Tarihi: 2019
Queen & Slim (Queen ve Slim) - 2019 - TR+ORG - 720P BroserBros 0 23 , Saat: 22:54
Son Yorum: BroserBros
Filmin Yayınlanma Tarihi: 2015
Minyonlar (Minions) - 2015 - TR+ORG - 720P BroserBros 0 20 , Saat: 22:34
Son Yorum: BroserBros
Filmin Yayınlanma Tarihi: 2014
Herkül: Özgürlük Savaşçısı (Hercules) - 2014 - TR+ORG - 720P BroserBros 0 12 , Saat: 18:15
Son Yorum: BroserBros
Filmin Yayınlanma Tarihi: 2018
Mamma Mia! Yeniden Başlıyoruz (Mamma Mia! Here We Go Again) - 2018 - TR+ORG - 720P BroserBros 0 50 01-06-2020, Saat: 15:59
Son Yorum: BroserBros

Hızlı Menü: