Filmbol Forum Film İndir 1080P v Amerikan Pastası 5: Çıplak Yol (The Naked Mile) - 2006 - TR - 1080P
Moderatör Alımları Başladı! Başvuru yapmak için tıklayın.
Filmbol Premium'da %50'e varan indirim fırsatı!
Amerikan Pastası 5: Çıplak Yol (The Naked Mile) - 2006 - TR - 1080P
BroserBros
Amerikan Pastası 5: Çıplak Yol (The Naked Mile) - 2006 - TR - 1080P
0
67
  • Derecelendirme: 0/5 - 0 oy
  • 1
  • 2
  • 3
  • 4
  • 5
Konuyu Okuyanlar:1 Ziyaretçi
Şuan Online!
Filmin Yayınlanma Tarihi: 2006 
Şuan Online!
BroserBros Kurucu Admin
*******
Admin

Vizyon Tarihi


19 Aralık 2006

imdb puanı


5,1 / 65,000

süre


97 dakika

Editör Puanı


5,8 / 10

Video Format: Mkv


Matroska (.MKV)

Ses Kodek: AC3


Audio Coding 3 (AC3)

sürüm


x264 | 1080P | BLURAY

Boyutlar


2,07 GB



 Amerikan Pastası 5: Çıplak Yol



Erik lisede de bir iş yapamamış ve yine bakir olarak ayrılmıştır. Bir şeyler yapması gerektiğini düşünen Erik, bu konu hakkında ne yapacağını bilmez. En sonunda Çıplak Yol isimli bir yarışmaya katılır ve şansını burada aramaya karar verir. Ancak bu yarışma oldukça utanç verici ve rezil bir yarışmadır...

Amerikan Pastası 5: Çıplak Yol (2006) (The Naked Mile) Filmi Imdb'den 65,000 kişi tarafından oylandı ve 5,1 puan aldı. Bu film için editör puanı 5,8 olarak belirlendi. İyi Seyirler!

Teknik Detaylar

Kod :
General
Unique ID                                : 18032080351199873897957486631729072023 (0xD90DA33A96EED148F137A14B5698797)
Complete name                            : /root/Desktop/4/Amerikan.Pastası.5.Çıplak.Yol.2006.1080p.BluRay.x264.TR.ENG.Filmbol.mkv
Format                                  : Matroska
Format version                          : Version 4 / Version 2
File size                                : 2.07 GiB
Duration                                : 1h 41mn
Overall bit rate                        : 2 916 Kbps
Movie name                              : Amerikan Pastası 5 - Çıplak Yol (2006) - Filmbol.org
Encoded date                            : UTC 2020-04-24 12:58:49
Writing application                      : mkvmerge v8.8.0 ('Wind at my back') 64bit
Writing library                          : libebml v1.3.3 + libmatroska v1.4.4

Video
ID                                      : 1
Format                                  : AVC
Format/Info                              : Advanced Video Codec
Format profile                          : High@L4.1
Format settings, CABAC                  : Yes
Format settings, ReFrames                : 4 frames
Codec ID                                : V_MPEG4/ISO/AVC
Duration                                : 1h 41mn
Bit rate                                : 2 500 Kbps
Width                                    : 1 912 pixels
Height                                  : 1 036 pixels
Display aspect ratio                    : 1.85:1
Frame rate mode                          : Constant
Frame rate                              : 23.976 fps
Color space                              : YUV
Chroma subsampling                      : 4:2:0
Bit depth                                : 8 bits
Scan type                                : Progressive
Bits/(Pixel*Frame)                      : 0.053
Stream size                              : 1.78 GiB (86%)
Title                                    : 1080P - Filmbol.org
Writing library                          : x264 core 142 r2479 dd79a61
Encoding settings                        : cabac=1 / ref=1 / deblock=1:-1:-1 / analyse=0x3:0x113 / me=hex / subme=2 / psy=1 / psy_rd=1.00:0.15 / mixed_ref=0 / me_range=16 / chroma_me=1 / trellis=0 / 8x8dct=1 / cqm=0 / deadzone=21,11 / fast_pskip=1 / chroma_qp_offset=0 / threads=3 / lookahead_threads=1 / sliced_threads=0 / nr=0 / decimate=1 / interlaced=0 / bluray_compat=0 / constrained_intra=0 / bframes=3 / b_pyramid=2 / b_adapt=1 / b_bias=0 / direct=1 / weightb=1 / open_gop=0 / weightp=1 / keyint=240 / keyint_min=24 / scenecut=40 / intra_refresh=0 / rc_lookahead=10 / rc=2pass / mbtree=1 / bitrate=2500 / ratetol=1.0 / qcomp=0.60 / qpmin=0 / qpmax=69 / qpstep=4 / cplxblur=20.0 / qblur=0.5 / vbv_maxrate=62500 / vbv_bufsize=78125 / nal_hrd=none / filler=0 / ip_ratio=1.40 / aq=1:1.00
Default                                  : Yes
Forced                                  : No
Color range                              : Limited
Color primaries                          : BT.709
Transfer characteristics                : BT.709
Matrix coefficients                      : BT.709

Audio #1
ID                                      : 2
Format                                  : AC-3
Format/Info                              : Audio Coding 3
Mode extension                          : CM (complete main)
Format settings, Endianness              : Big
Codec ID                                : A_AC3
Duration                                : 1h 41mn
Bit rate mode                            : Constant
Bit rate                                : 192 Kbps
Channel(s)                              : 2 channels
Channel positions                        : Front: L R
Sampling rate                            : 44.1 KHz
Frame rate                              : 28.711 fps (1536 spf)
Compression mode                        : Lossy
Delay relative to video                  : 2s 417ms
Stream size                              : 140 MiB (7%)
Title                                    : Türkçe
Default                                  : Yes
Forced                                  : No

Audio #2
ID                                      : 3
Format                                  : AC-3
Format/Info                              : Audio Coding 3
Mode extension                          : CM (complete main)
Format settings, Endianness              : Big
Codec ID                                : A_AC3
Duration                                : 1h 41mn
Bit rate mode                            : Constant
Bit rate                                : 224 Kbps
Channel(s)                              : 6 channels
Channel positions                        : Front: L C R, Side: L R, LFE
Sampling rate                            : 48.0 KHz
Frame rate                              : 31.250 fps (1536 spf)
Compression mode                        : Lossy
Delay relative to video                  : -83ms
Stream size                              : 163 MiB (8%)
Title                                    : İngilizce
Language                                : English
Default                                  : No
Forced                                  : No

Film Detayları


 Amerikan Pastası 5: Çıplak Yol

 Amerikan Pastası 5: Çıplak Yol

 Amerikan Pastası 5: Çıplak Yol


Film Fragmanı


Film Detayları

Uptobox ile indir

1Fichier ile indir

1Fichier'den İndiremiyor musun? Tıklayın!


Mega ile indir

Bunun için üzgünüz ancak, bu linke sadece premium üyeler erişebilir.

Filmbol Cloud



Konu ile Alakalı Benzer Konular
Konular Yazar Yorumlar Okunma Son Yorum
Filmin Yayınlanma Tarihi: 2014
Lego Filmi (The Lego Movie) - 2014 - TR+ORG - 1080P BroserBros 0 20 11 saat önce
Son Yorum: BroserBros
Filmin Yayınlanma Tarihi: 2014
Nuh: Büyük Tufan (Noah) - 2014 - TR+ORG - 1080P BroserBros 0 22 , Saat: 10:09
Son Yorum: BroserBros
Filmin Yayınlanma Tarihi: 2014
Yarının Sınırında (Edge of Tomorrow) - 2014 - TR+ORG - 1080P BroserBros 0 37 , Saat: 20:41
Son Yorum: BroserBros
Filmin Yayınlanma Tarihi: 2014
300: Bir İmparatorluğun Yükselişi (300: Rise of an Empire - 300 Spartalı 2) - 2014 - TR+ORG - 1080P BroserBros 0 56 04-06-2020, Saat: 13:39
Son Yorum: BroserBros
Filmin Yayınlanma Tarihi: 2020
Kirpi Sonic (Sonic the Hedgehog) - 2020 - TR+ORG - 1080P BroserBros 0 65 04-06-2020, Saat: 12:57
Son Yorum: BroserBros

Hızlı Menü: