Hoşgeldin, Ziyaretçi: Giriş Yap Üye Ol


Konuyu Oyla:
  • Derecelendirme: 0/5 - 0 oy
  • 1
  • 2
  • 3
  • 4
  • 5
Title: Amerikan Pastası 4 (Bando Takımı) (American Pie Band Camp) Türkçe Dublaj BRRip XviD
Gösterim Stili
#1
Filmin Yayınlanma Tarihi: 2005 

vizyon tarihi


26 Aralık 2005

imdb puanı


5,1 / 66,000

süre


87 dakika

Editör Puanı


5,4 / 10

Video Format: Avi


Audio Video Interleave (.AVI)

Ses Kodek: MP3


MPEG-1 Audio Layer III (MP3)

sürüm


h263 | BRRip XviD

Boyutlar


0,70 GB



 Amerikan Pastası 4 (Bando Takımı)



Stifler'in erkek kardeşi bir ceza alır. Bu cezaya göre Matt yaz tatili boyunca gezip eğlenemeyecektir. Bunu yerine, Matt bir bando takımına girecektir. Bu Matt için pekte iyi bir olay değildir fakat buna mecburdur. Aslında Matt bunu istemese de bu olay onun için tatilden bile iyi geçecektir...

Amerikan Pastası 4 (Bando Takımı) (2005) (American Pie Band Camp) Filmi Imdb'den 66,000 kişi tarafından oylandı ve 5,1 puan aldı. Bu film için editör puanı 5,4 olarak belirlendi. İyi Seyirler!

Teknik Detaylar

Kod:
General
Complete name                            : /root/Desktop/3/Amerikan.Pastası.4.BRRip.XviD.TR.Filmbol.avi
Format                                   : AVI
Format/Info                              : Audio Video Interleave
File size                                : 700 MiB
Duration                                 : 1h 26mn
Overall bit rate                         : 1 134 Kbps
Writing application                      : VirtualDubMod 1.5.4.1 (build 2178/release)
Writing library                          : VirtualDubMod build 2178/release
segm                                     : 

Video
ID                                       : 0
Format                                   : MPEG-4 Visual
Format profile                           : Advanced Simple@L5
Format settings, BVOP                    : 1
Format settings, QPel                    : No
Format settings, GMC                     : No warppoints
Format settings, Matrix                  : Custom
Codec ID                                 : XVID
Codec ID/Hint                            : XviD
Duration                                 : 1h 26mn
Bit rate                                 : 996 Kbps
Width                                    : 608 pixels
Height                                   : 336 pixels
Display aspect ratio                     : 16:9
Frame rate                               : 25.000 fps
Color space                              : YUV
Chroma subsampling                       : 4:2:0
Bit depth                                : 8 bits
Scan type                                : Progressive
Compression mode                         : Lossy
Bits/(Pixel*Frame)                       : 0.195
Stream size                              : 615 MiB (88%)
Writing library                          : XviD 1.1.2 (UTC 2006-11-01)

Audio
ID                                       : 1
Format                                   : MPEG Audio
Format version                           : Version 1
Format profile                           : Layer 3
Mode                                     : Joint stereo
Mode extension                           : MS Stereo
Codec ID                                 : 55
Codec ID/Hint                            : MP3
Duration                                 : 1h 26mn
Bit rate mode                            : Constant
Bit rate                                 : 128 Kbps
Channel(s)                               : 2 channels
Sampling rate                            : 48.0 KHz
Compression mode                         : Lossy
Delay relative to video                  : 984ms
Stream size                              : 79.1 MiB (11%)
Alignment                                : Split accross interleaves
Interleave, duration                     : 40 ms (1.00 video frame)
Interleave, preload duration             : 504 ms
Language                                 : English / English

Film Detayları


 Amerikan Pastası 4 (Bando Takımı)

 Amerikan Pastası 4 (Bando Takımı)

 Amerikan Pastası 4 (Bando Takımı)


Film Fragmanı


Film Detayları


Uptobox ile indir

1Fichier ile indir

LetsUpload ile indir

Bunun için üzgünüz ancak, bu linke sadece premium üyeler erişebilir.

Filmbol Cloud

 
Cevapla
  


Konu ile Alakalı Benzer Konular
Konular Yazar Yorumlar Okunma Son Yorum
Filmin Yayınlanma Tarihi: 2003 Amerikan Pastası 3 Düğün (American Wedding) Türkçe Dublaj BRRip XviD indir BroserBros 0 41 25-03-2020, Saat: 22:37
Son Yorum: BroserBros
Filmin Yayınlanma Tarihi: 2001 Amerikan Pastası 2 (American Pie 2) Türkçe Dublaj BRRip XviD indir BroserBros 0 40 25-03-2020, Saat: 22:26
Son Yorum: BroserBros
Filmin Yayınlanma Tarihi: 1999 Amerikan Pastası 1 (American Pie) Türkçe Dublaj BRRip XviD indir BroserBros 0 45 24-03-2020, Saat: 22:42
Son Yorum: BroserBros
Filmin Yayınlanma Tarihi: 2019 Utanç (Shame) Türkçe Dublaj BRRip XviD indir BroserBros 2 113 22-03-2020, Saat: 17:59
Son Yorum: sectechno
Filmin Yayınlanma Tarihi: 2018 Loro (2018) Türkçe Dublaj BRRip XviD İndir BroserBros 0 159 23-01-2020, Saat: 18:15
Son Yorum: BroserBros

Hızlı Menü:


Browsing: 1 Ziyaretçi