Hoşgeldin, Ziyaretçi: Giriş Yap Üye Ol


Konuyu Oyla:
  • Derecelendirme: 0/5 - 0 oy
  • 1
  • 2
  • 3
  • 4
  • 5
Title: Amerikan Pastası 4 (Bando Takımı) (American Pie Band Camp) Türkçe Dublaj BLURAY 1080P
Gösterim Stili
#1
Filmin Yayınlanma Tarihi: 2005 

vizyon tarihi


26 Aralık 2005

imdb puanı


5,1 / 66,000

süre


87 dakika

Editör Puanı


5,4 / 10

Video Format: Mkv


Matroska (.MKV)

Ses Kodek: AC3


Audio Coding 3 (AC3)

sürüm


x264 | 1080P | BLURAY

Boyutlar


1,71 GB



 Amerikan Pastası 4 (Bando Takımı)



Stifler'in erkek kardeşi bir ceza alır. Bu cezaya göre Matt yaz tatili boyunca gezip eğlenemeyecektir. Bunu yerine, Matt bir bando takımına girecektir. Bu Matt için pekte iyi bir olay değildir fakat buna mecburdur. Aslında Matt bunu istemese de bu olay onun için tatilden bile iyi geçecektir...

Amerikan Pastası 4 (Bando Takımı) (2005) (American Pie Band Camp) Filmi Imdb'den 66,000 kişi tarafından oylandı ve 5,1 puan aldı. Bu film için editör puanı 5,4 olarak belirlendi. İyi Seyirler!

Teknik Detaylar

Kod:
General
Unique ID                                : 64443141096392281368412480897650498700 (0x307B4C29EDEAF5725DE108ABAA779C8C)
Complete name                            : /root/Desktop/3/Amerikan.Pastası.4.Bando.Kampı.2005.1080p.BluRay.x264.TR.Filmbol.mkv
Format                                   : Matroska
Format version                           : Version 4 / Version 2
File size                                : 1.71 GiB
Duration                                 : 1h 31mn
Overall bit rate                         : 2 691 Kbps
Movie name                               : Amerikan Pastası 4 - Band Kampı (2005) - Filmbol
Encoded date                             : UTC 2020-03-24 14:45:59
Writing application                      : mkvmerge v8.8.0 ('Wind at my back') 64bit
Writing library                          : libebml v1.3.3 + libmatroska v1.4.4

Video
ID                                       : 1
Format                                   : AVC
Format/Info                              : Advanced Video Codec
Format profile                           : High@L4.1
Format settings, CABAC                   : Yes
Format settings, ReFrames                : 4 frames
Codec ID                                 : V_MPEG4/ISO/AVC
Duration                                 : 1h 31mn
Bit rate                                 : 2 500 Kbps
Width                                    : 1 908 pixels
Height                                   : 1 076 pixels
Display aspect ratio                     : 16:9
Frame rate mode                          : Variable
Frame rate                               : 23.976 (24000/1001) fps
Color space                              : YUV
Chroma subsampling                       : 4:2:0
Bit depth                                : 8 bits
Scan type                                : Progressive
Bits/(Pixel*Frame)                       : 0.051
Stream size                              : 1.59 GiB (93%)
Title                                    : 1080P - Filmbol.org
Writing library                          : x264 core 142 r2479 dd79a61
Encoding settings                        : cabac=1 / ref=1 / deblock=1:-1:-1 / analyse=0x3:0x113 / me=hex / subme=2 / psy=1 / psy_rd=1.00:0.15 / mixed_ref=0 / me_range=16 / chroma_me=1 / trellis=0 / 8x8dct=1 / cqm=0 / deadzone=21,11 / fast_pskip=1 / chroma_qp_offset=0 / threads=3 / lookahead_threads=1 / sliced_threads=0 / nr=0 / decimate=1 / interlaced=0 / bluray_compat=0 / constrained_intra=0 / bframes=3 / b_pyramid=2 / b_adapt=1 / b_bias=0 / direct=1 / weightb=1 / open_gop=0 / weightp=1 / keyint=240 / keyint_min=24 / scenecut=40 / intra_refresh=0 / rc_lookahead=10 / rc=2pass / mbtree=1 / bitrate=2500 / ratetol=1.0 / qcomp=0.60 / qpmin=0 / qpmax=69 / qpstep=4 / cplxblur=20.0 / qblur=0.5 / vbv_maxrate=62500 / vbv_bufsize=78125 / nal_hrd=none / filler=0 / ip_ratio=1.40 / aq=1:1.00
Default                                  : Yes
Forced                                   : No
Color range                              : Limited
Color primaries                          : BT.709
Transfer characteristics                 : BT.709
Matrix coefficients                      : BT.709

Audio
ID                                       : 2
Format                                   : AC-3
Format/Info                              : Audio Coding 3
Mode extension                           : CM (complete main)
Format settings, Endianness              : Big
Codec ID                                 : A_AC3
Duration                                 : 1h 30mn
Bit rate mode                            : Constant
Bit rate                                 : 192 Kbps
Channel(s)                               : 2 channels
Channel positions                        : Front: L R
Sampling rate                            : 44.1 KHz
Frame rate                               : 28.711 fps (1536 spf)
Compression mode                         : Lossy
Delay relative to video                  : 2s 167ms
Stream size                              : 124 MiB (7%)
Title                                    : Türkçe - Filmbol.org
Default                                  : Yes
Forced                                   : No

Film Detayları


 Amerikan Pastası 4 (Bando Takımı)

 Amerikan Pastası 4 (Bando Takımı)

 Amerikan Pastası 4 (Bando Takımı)


Film Fragmanı


Film Detayları

Uptobox ile indir

1Fichier ile indir

LetsUpload ile indir

Bunun için üzgünüz ancak, bu linke sadece premium üyeler erişebilir.

Filmbol Cloud

 
Cevapla
  


Konu ile Alakalı Benzer Konular
Konular Yazar Yorumlar Okunma Son Yorum
Filmin Yayınlanma Tarihi: 2003 Amerikan Pastası 3 Düğün (American Wedding) Türkçe Dublaj BLURAY 1080P indir BroserBros 0 63 25-03-2020, Saat: 22:39
Son Yorum: BroserBros
Filmin Yayınlanma Tarihi: 2001 Amerikan Pastası 2 (American Pie 2) Türkçe Dublaj BLURAY 1080P indir BroserBros 0 33 25-03-2020, Saat: 22:26
Son Yorum: BroserBros
Filmin Yayınlanma Tarihi: 1999 Amerikan Pastası 1 (American Pie) Türkçe Dublaj BLURAY 1080P indir BroserBros 0 66 24-03-2020, Saat: 22:42
Son Yorum: BroserBros
Filmin Yayınlanma Tarihi: 2016 Sıcak Yaz (White Girl) Türkçe Dublaj 1080P İndir BroserBros 3 1,345 07-03-2020, Saat: 22:58
Son Yorum: sefali
Filmin Yayınlanma Tarihi: 2019 Utanç (Shame) Türkçe Dublaj BLURAY 1080P indir BroserBros 3 129 05-03-2020, Saat: 12:02
Son Yorum: ahleten

Hızlı Menü:


Browsing: 1 Ziyaretçi