Filmbol Forum Film İndir BRRip XviD v Amerikalı Kadın (American Woman) - 2018 - TR - BRRip XviD
Amerikalı Kadın (American Woman) - 2018 - TR - BRRip XviD
BroserBros
Amerikalı Kadın (American Woman) - 2018 - TR - BRRip XviD
0
73
  • Derecelendirme: 0/5 - 0 oy
  • 1
  • 2
  • 3
  • 4
  • 5
Konuyu Okuyanlar:1 Ziyaretçi
Şuan Online!
Filmin Yayınlanma Tarihi: 2018 
Şuan Online!
BroserBros Kurucu Admin
*******
Admin

Vizyon Tarihi


14 Haziran 2019

imdb puanı


6,8 / 3,600

süre


111 dakika

Editör Puanı


6,4 / 10

Video Format: Avi


Audio Video Interleave (.AVI)

Ses Kodek: MP3


MPEG-1 Audio Layer III (MP3)

sürüm


h263 | BDRip XviD

Boyutlar


1,40 GB



 Amerikalı Kadın



American Woman, kızının kaybolmasının ardından torununu büyütmeye çalışan bir kadının hayatına odaklanıyor. Pennsylvania'nın küçük bir kasabasında yaşayan bir kadının kızı, ardında hiçbir iz bırakmadan ortadan kaybolur. Kızının kayboluşunun ardındaki sırrı öğrenmeye çalışan ve ümidini kaybetmeden kızını arayan kadın, bir yandan da torunu ile ilgilenmeye çalışır.

Amerikalı Kadın (2018) (American Woman) Filmi Imdb'den 3,600 kişi tarafından oylandı ve 6,8 puan aldı. Bu film için editör puanı 6,4 olarak belirlendi. İyi Seyirler!

Teknik Detaylar

Kod :
General
Complete name                            : /root/Desktop/3/Amerikalı.Kadın.2018.BDRip.XViD.TR.Filmbol.avi
Format                                  : AVI
Format/Info                              : Audio Video Interleave
File size                                : 1.40 GiB
Duration                                : 1h 51mn
Overall bit rate                        : 1 789 Kbps

Video
ID                                      : 0
Format                                  : MPEG-4 Visual
Format profile                          : Advanced Simple@L5
Format settings, BVOP                    : 1
Format settings, QPel                    : No
Format settings, GMC                    : No warppoints
Format settings, Matrix                  : Custom
Codec ID                                : XVID
Codec ID/Hint                            : XviD
Duration                                : 1h 51mn
Bit rate                                : 1 648 Kbps
Width                                    : 720 pixels
Height                                  : 304 pixels
Display aspect ratio                    : 2.35:1
Frame rate                              : 23.976 (23976/1000) fps
Color space                              : YUV
Chroma subsampling                      : 4:2:0
Bit depth                                : 8 bits
Scan type                                : Progressive
Compression mode                        : Lossy
Bits/(Pixel*Frame)                      : 0.314
Stream size                              : 1.29 GiB (92%)
Writing library                          : XviD 73

Audio
ID                                      : 1
Format                                  : MPEG Audio
Format version                          : Version 1
Format profile                          : Layer 3
Mode                                    : Joint stereo
Mode extension                          : MS Stereo
Codec ID                                : 55
Codec ID/Hint                            : MP3
Duration                                : 1h 51mn
Bit rate mode                            : Constant
Bit rate                                : 128 Kbps
Channel(s)                              : 2 channels
Sampling rate                            : 48.0 KHz
Compression mode                        : Lossy
Stream size                              : 102 MiB (7%)
Alignment                                : Aligned on interleaves
Interleave, duration                    : 24 ms (0.58 video frame)

Film Detayları


 Amerikalı Kadın

 Amerikalı Kadın

 Amerikalı Kadın


Film Fragmanı


Film Detayları


Uptobox ile indir

1Fichier ile indir

1Fichier'den İndiremiyor musun? Tıklayın!


Mega ile indir

Bunun için üzgünüz ancak, bu linke sadece premium üyeler erişebilir.

Filmbol Cloud



Konu ile Alakalı Benzer Konular
Konular Yazar Yorumlar Okunma Son Yorum
Filmin Yayınlanma Tarihi: 2014
Transformers: Kayıp Çağ (Transformers: Age of Extinction) - 2014 - TR - BRRip XviD BroserBros 0 23 , Saat: 23:15
Son Yorum: BroserBros
Filmin Yayınlanma Tarihi: 2019
Queen & Slim (Queen ve Slim) - 2019 - TR - BRRip XviD BroserBros 0 19 , Saat: 22:53
Son Yorum: BroserBros
Filmin Yayınlanma Tarihi: 2015
Minyonlar (Minions) - 2015 - TR - BRRip XviD BroserBros 0 6 , Saat: 22:34
Son Yorum: BroserBros
Filmin Yayınlanma Tarihi: 2014
Herkül: Özgürlük Savaşçısı (Hercules) - 2014 - TR - BRRip XviD BroserBros 0 11 , Saat: 18:14
Son Yorum: BroserBros
Filmin Yayınlanma Tarihi: 2017
Justice League: Adalet Birliği (Justice League) - 2017 - TR - BRRip XviD BroserBros 1 31 , Saat: 16:59
Son Yorum: sectechno

Hızlı Menü: