Hoşgeldin, Ziyaretçi: Giriş Yap Üye Ol


stats
Adblock'u kapattıysanız tıklayın.
Hoşgeldiniz!
Filmbol'u tercih ettiğiniz için teşekkürler, ancak ablock kullanarak devam edemezsiniz.
Merak etmeyin. Heryerden ardı ardına çıkan reklamlar görmeyeceksiniz :)

Sadece site içi 1 reklam göreceksin ve bu site gezintini etkilemeyecek.
Konuyu Oyla:
  • Derecelendirme: 0/5 - 0 oy
  • 1
  • 2
  • 3
  • 4
  • 5
Alita: Savaş Meleği (Alita: Battle Angel) Türkçe Dublaj Brrip Xvid İndir
#1
Filmin Yayınlanma Tarihi: 2019 

indirme türü


Bulut + Premium

vizyon tarihi


15 Şubat 2019

Boyutlar


1,21

diller


[TR]

altyazilar


Yok [Eklenebilir]

Video Format: Avi


Audio Video Interleave (.AVI)

Video Detay


MPEG-4, 1439 Kbps, 1,23 GB

imdb puanı


7,5 / 10,0 / 110,000

süre


122 dakika

Ses Kodek: MP3


MPEG-1 Audio Layer III (MP3)

Ses Detay


128 Kbps, 2 Kanal, 112 Mb

Editör Puanı


8,2

Genislik Yukseklik


720-300

sürüm


h263 | Brrip-Xvid-HDRip



Film Detayları

Eski bir savaş meleği olan Alita uyanır ancak geçmişine dair hiç bir şey, hatta kim olduğunu bile hatırlamaz. Alita, şimdi kim olduğunu bulmak için arayış içine girer...

Alita: Savaş Meleği (Alita: Battle Angel) Filmi Imdb'den 120,000 kişi tarafından oylandı ve 7,5 puan aldı. Bu film için editör puanı 8,2 olarak belirlendi. İyi Seyirler!


Teknik Detaylar


Kod:
General
Complete name                            : Alita.Battle.Angel.2019.HDRip.XViD.TR.Filmbol.avi
Format                                   : AVI
Format/Info                              : Audio Video Interleave
File size                                : 1.35 GiB
Duration                                 : 2h 1mn
Overall bit rate                         : 1 580 Kbps

Video
ID                                       : 0
Format                                   : MPEG-4 Visual
Format profile                           : Advanced Simple@L5
Format settings, BVOP                    : 2
Format settings, QPel                    : No
Format settings, GMC                     : No warppoints
Format settings, Matrix                  : Default (MPEG)
Codec ID                                 : XVID
Codec ID/Hint                            : XviD
Duration                                 : 2h 1mn
Bit rate                                 : 1 439 Kbps
Width                                    : 720 pixels
Height                                   : 300 pixels
Display aspect ratio                     : 2.40:1
Frame rate                               : 23.976 (23976/1000) fps
Color space                              : YUV
Chroma subsampling                       : 4:2:0
Bit depth                                : 8 bits
Scan type                                : Progressive
Compression mode                         : Lossy
Bits/(Pixel*Frame)                       : 0.278
Stream size                              : 1.23 GiB (91%)
Writing library                          : XviD 64

Audio
ID                                       : 1
Format                                   : MPEG Audio
Format version                           : Version 1
Format profile                           : Layer 3
Mode                                     : Joint stereo
Mode extension                           : MS Stereo
Codec ID                                 : 55
Codec ID/Hint                            : MP3
Duration                                 : 2h 1mn
Bit rate mode                            : Constant
Bit rate                                 : 128 Kbps
Channel(s)                               : 2 channels
Sampling rate                            : 48.0 KHz
Compression mode                         : Lossy
Stream size                              : 112 MiB (8%)
Alignment                                : Aligned on interleaves
Interleave, duration                     : 24 ms (0.58 video frame)



Film Detayları


Alita Savas Melegi

Alita Savas Melegi

Alita Savas Melegi

Alita Savas Melegi

Alita Savas Melegi

Film Fragmanı


Film Detayları

Brrip İndir


Turbobit İle İndir

Uptobox ile indir

Dosya Co ile indir

Dosya Upload ile indir

Mega ile indir

Filmbol'da aşağıdaki linkler sadece üyelere sunulur. Ayrıca bu linklerde link kısaltma servisleri kullanılmaz, linke tek tık ile reklamsız erişirsiniz. Konu'ya yorum yapın ve sayfayı yenileyin. Reklamsız linkler (en az 3 en fazla 5 link) açılmış olacaktır. Not: Filmbol'a üye olmak tamamen ücretsizdir, en az 3 link kuralı 01.07.2019 tarihinden sonraki paylaşımlar için geçerlidir. Ancak çoğu film için en az bir premium link her zaman bulunur.

Mega

Dosyaco

Dosyaupload

Mediafire

Google Drive
 
Cevapla
#2
Teşekkürler
 
Cevapla
#3
Güzel film
 
Cevapla
  


Konu ile Alakalı Benzer Konular
Konular Yazar Yorumlar Okunma Son Yorum
Filmin Yayınlanma Tarihi: 2014 Yıldızlararası (Interstellar) Türkçe Dublaj Brrip-Xvid İndir BroserBros 2 3,241 23-08-2019, Saat: 20:57
Son Yorum: edizshady
Filmin Yayınlanma Tarihi: 2019 Avengers: Endgame (2019) Türkçe Dublaj Brrip Xvid İndir BroserBros 6 132 23-08-2019, Saat: 18:20
Son Yorum: Yunosal31
Filmin Yayınlanma Tarihi: 2018 Venom: Zehirli Öfke Türkçe Dublaj Brrip-Xvid İndir DRMOV 1 306 18-08-2019, Saat: 13:42
Son Yorum: hugomaan
Filmin Yayınlanma Tarihi: 2016 Kurtuluş Günü 2: Yeni Tehdit 2016 Türkçe Dublaj Brrip-Xvid İndir BroserBros 4 9,367 24-07-2019, Saat: 13:59
Son Yorum: BroserBros
Filmin Yayınlanma Tarihi: 2018 Bumblebee Türkçe Dublaj Brrip Xvid İndir BroserBros 0 76 11-07-2019, Saat: 20:49
Son Yorum: BroserBros

Hızlı Menü:


Şu anda bu konuyu okuyanlar: 1 Ziyaretçi