Hoşgeldin, Ziyaretçi: Giriş Yap Üye Ol


Konuyu Oyla:
  • Derecelendirme: 0/5 - 0 oy
  • 1
  • 2
  • 3
  • 4
  • 5
Title: Alita: Savaş Meleği (Alita: Battle Angel) Türkçe Dublaj Brrip Xvid İndir
Gösterim Stili
#1
Filmin Yayınlanma Tarihi: 2019 

indirme türü


Bulut + Premium

vizyon tarihi


15 Şubat 2019

Boyutlar


1,21

diller


[TR]

altyazilar


Yok [Eklenebilir]

Video Format: Avi


Audio Video Interleave (.AVI)

Video Detay


MPEG-4, 1439 Kbps, 1,23 GB

imdb puanı


7,5 / 10,0 / 110,000

süre


122 dakika

Ses Kodek: MP3


MPEG-1 Audio Layer III (MP3)

Ses Detay


128 Kbps, 2 Kanal, 112 Mb

Editör Puanı


8,2

Genislik Yukseklik


720-300

sürüm


h263 | Brrip-Xvid-HDRip


Film Detayları

Eski bir savaş meleği olan Alita uyanır ancak geçmişine dair hiç bir şey, hatta kim olduğunu bile hatırlamaz. Alita, şimdi kim olduğunu bulmak için arayış içine girer...

Alita: Savaş Meleği (Alita: Battle Angel) Filmi Imdb'den 120,000 kişi tarafından oylandı ve 7,5 puan aldı. Bu film için editör puanı 8,2 olarak belirlendi. İyi Seyirler!


Teknik Detaylar

Kod:
General
Complete name                            : Alita.Battle.Angel.2019.HDRip.XViD.TR.Filmbol.avi
Format                                   : AVI
Format/Info                              : Audio Video Interleave
File size                                : 1.35 GiB
Duration                                 : 2h 1mn
Overall bit rate                         : 1 580 Kbps

Video
ID                                       : 0
Format                                   : MPEG-4 Visual
Format profile                           : Advanced Simple@L5
Format settings, BVOP                    : 2
Format settings, QPel                    : No
Format settings, GMC                     : No warppoints
Format settings, Matrix                  : Default (MPEG)
Codec ID                                 : XVID
Codec ID/Hint                            : XviD
Duration                                 : 2h 1mn
Bit rate                                 : 1 439 Kbps
Width                                    : 720 pixels
Height                                   : 300 pixels
Display aspect ratio                     : 2.40:1
Frame rate                               : 23.976 (23976/1000) fps
Color space                              : YUV
Chroma subsampling                       : 4:2:0
Bit depth                                : 8 bits
Scan type                                : Progressive
Compression mode                         : Lossy
Bits/(Pixel*Frame)                       : 0.278
Stream size                              : 1.23 GiB (91%)
Writing library                          : XviD 64

Audio
ID                                       : 1
Format                                   : MPEG Audio
Format version                           : Version 1
Format profile                           : Layer 3
Mode                                     : Joint stereo
Mode extension                           : MS Stereo
Codec ID                                 : 55
Codec ID/Hint                            : MP3
Duration                                 : 2h 1mn
Bit rate mode                            : Constant
Bit rate                                 : 128 Kbps
Channel(s)                               : 2 channels
Sampling rate                            : 48.0 KHz
Compression mode                         : Lossy
Stream size                              : 112 MiB (8%)
Alignment                                : Aligned on interleaves
Interleave, duration                     : 24 ms (0.58 video frame)



Film Detayları


Alita Savas Melegi

Alita Savas Melegi

Alita Savas Melegi

Alita Savas Melegi

Alita Savas Melegi

Film Fragmanı


Film Detayları

Brrip İndir


Uptobox ile indir

rsZV
Mega linki şuan da gizli. Kullanıma açmak için konuya yorum yapın ve ardından sayfayı yenileyin. Ayrıca bu linki açtığınızda reklamsız olarak erişebileceğinizi unutmayın.

Mega



LetsUpload ile indir

Mega Upload ile indir

 
Cevapla
#2
Teşekkürler
 
Cevapla
#3
Güzel film
 
Cevapla
#4
Teşekkürler Güzel film
 
Cevapla
#5
teşekkürler
 
Cevapla
#6
güzel film
 
Cevapla
#7
Elinize sağlık
 
Cevapla
  


Konu ile Alakalı Benzer Konular
Konular Yazar Yorumlar Okunma Son Yorum
Filmin Yayınlanma Tarihi: 2014 Açlık Oyunları: Alaycı Kuş Bölüm 1 (Mockingjay Part 1) Türkçe Dublaj Brrip-Xvid İndir BroserBros 4 2,244 9 saat önce
Son Yorum: adem.balci51
Filmin Yayınlanma Tarihi: 2019 İkizler Projesi (Gemini Man) Türkçe Dublaj BRRip XviD İndir BroserBros 0 21 23-01-2020, Saat: 18:05
Son Yorum: BroserBros
Filmin Yayınlanma Tarihi: 2019 Captain Marvel Türkçe Dublaj Brrip-Xvid İndir BroserBros 3 298 13-01-2020, Saat: 20:41
Son Yorum: tayyib5731
Filmin Yayınlanma Tarihi: 2018 Venom: Zehirli Öfke Türkçe Dublaj Brrip-Xvid İndir DRMOV 4 629 13-01-2020, Saat: 20:40
Son Yorum: tayyib5731
Filmin Yayınlanma Tarihi: 2018 Yenilmezler: Sonsuzluk Savaşı (2018) Türkçe Dublaj Brrip-Xvid İndir BroserBros 7 3,265 13-01-2020, Saat: 12:12
Son Yorum: Ap0calypse

Hızlı Menü:


Browsing: 2 Ziyaretçi