Hoşgeldin, Ziyaretçi: Giriş Yap Üye Ol


stats
Adblock'u kapattıysanız tıklayın.
Hoşgeldiniz!
Filmbol'u tercih ettiğiniz için teşekkürler, ancak ablock kullanarak devam edemezsiniz.
Merak etmeyin. Heryerden ardı ardına çıkan reklamlar görmeyeceksiniz :)

Sadece site içi 1 reklam göreceksin ve bu site gezintini etkilemeyecek.
Konuyu Oyla:
  • Derecelendirme: 0/5 - 0 oy
  • 1
  • 2
  • 3
  • 4
  • 5
Title: Aladdin (2019) Türkçe Dublaj Brrip Xvid İndir
Gösterim Stili
#1
Filmin Yayınlanma Tarihi: 2019 

indirme türü


Bulut + Premium

vizyon tarihi


24 Mayıs 2019

Boyutlar


1,55

diller


[TR]

altyazilar


KISIM [Eklenebilir]

Video Format: Avi


Audio Video Interleave (.AVI)

Video Detay


MPEG-4, 1597 Kbps, 1,43 GB

imdb puanı


7,2 / 10,0 / 130,000

süre


128 dakika

Ses Kodek: MP3


MPEG-1 Audio Layer III (MP3)

Ses Detay


128 Kbps, 2 Kanal, 117Mb

Editör Puanı


7,4

Genislik Yukseklik


720-302

sürüm


h263 | Brrip Xvid





Aladdin


Film Detayları

Aladdin (2019) Türkçe Dublaj Bluray Brrip-Xvid İndir | Kısa özet:
Aladdin, sihirli bir lamba sayesinde sevdiği kıza ulaşmaya çalışırken, kendisini zorlu bir maceranın içerisinde bulan bir gencin hikayesini konu ediyor. Aladdin, zamanını Agrabah şehrinde pazardan yiyecek çalarak geçiren fakir bir gençtir. Gecelerini, şehrin farklı bölgelerinde uyuyarak geçirirken, gündüzlerini ise hırsızlığa ayırmaktadır. Ancak yaşam tarzına rağmen aslında Aladdin'in altın gibi bir kalbi vardır. Onun macerası, tuhaf babası tarafından zorla evlendirilmeye çalışılan bir genç kızla tanıştığı zaman başlar. Bu genç kız aslında ülkenin sultanının kızı olan Prenses Jasmine'dir. Aladdin'in şansı, Harikalar Mağarası'ndan sihirli bir lamba aldığında aniden değişir. Bilmeden aldığı bu lambada, eğlenceye düşkün, neşeli ve 3 dileğini gerçekleştirme şansına sahip olan bir cin vardır. Aladdin'in lambanın cini sayesinde sevdiği kıza ulaşmaya çalışırken bilmediği şey ise Sultan'ın danışmanı Jafar'ın hem Aladdin hem de lamba için kendi planları olduğudur...
Aladdin Filmi Imdb'den 130,000 kişi tarafından oylandı ve 7,2 puan aldı. Bu film için editör puanı 7,4 olarak belirlendi. İyi Seyirler!


Teknik Detaylar

Kod:
General
Complete name                            : Aladdin.2019.BRRip.XviD.TR.Filmbol.avi
Format                                   : AVI
Format/Info                              : Audio Video Interleave
File size                                : 1.55 GiB
Duration                                 : 2h 7mn
Overall bit rate                         : 1 738 Kbps

Video
ID                                       : 0
Format                                   : MPEG-4 Visual
Format profile                           : Simple@L5
Format settings, BVOP                    : No
Format settings, QPel                    : No
Format settings, GMC                     : No warppoints
Format settings, Matrix                  : Default (H.263)
Codec ID                                 : XVID
Codec ID/Hint                            : XviD
Duration                                 : 2h 7mn
Bit rate                                 : 1 597 Kbps
Width                                    : 720 pixels
Height                                   : 302 pixels
Display aspect ratio                     : 2.40:1
Frame rate                               : 23.976 fps
Color space                              : YUV
Chroma subsampling                       : 4:2:0
Bit depth                                : 8 bits
Scan type                                : Progressive
Compression mode                         : Lossy
Bits/(Pixel*Frame)                       : 0.306
Stream size                              : 1.43 GiB (92%)
Writing library                          : Lavc58.35.100

Audio
ID                                       : 1
Format                                   : MPEG Audio
Format version                           : Version 1
Format profile                           : Layer 3
Mode                                     : Joint stereo
Mode extension                           : MS Stereo
Codec ID                                 : 55
Codec ID/Hint                            : MP3
Duration                                 : 2h 7mn
Bit rate mode                            : Constant
Bit rate                                 : 128 Kbps
Channel(s)                               : 2 channels
Sampling rate                            : 48.0 KHz
Compression mode                         : Lossy
Stream size                              : 117 MiB (7%)
Alignment                                : Aligned on interleaves
Interleave, duration                     : 24 ms (0.58 video frame)



Film Detayları


Aladdin

Aladdin

Aladdin


Film Fragmanı


Film Detayları

Brrip İndir


Uptobox ile indir

LetsUpload ile indir


Mega linki şuan da gizli. Kullanıma açmak için konuya yorum yapın ve ardından sayfayı yenileyin. Ayrıca bu linki açtığınızda reklamsız olarak erişebileceğinizi unutmayın.

Mega


jgKa
Mediafire linki şuan da gizli. Kullanıma açmak için konuya yorum yapın ve ardından sayfayı yenileyin. Ayrıca bu linki açtığınızda reklamsız olarak erişebileceğinizi unutmayın.

Mediafire


 
Cevapla
#2
umarım güzeldir
 
Cevapla
#3
umarım güzeldir
 
Cevapla
#4
GÜZEL FİLM UZUN ZAMANDIR BEKLİYORDUM
 
Cevapla
#5
GÜZEL FİLM
 
Cevapla
#6
nice nice
 
Cevapla
  


Konu ile Alakalı Benzer Konular
Konular Yazar Yorumlar Okunma Son Yorum
Filmin Yayınlanma Tarihi: 2016 Leylekler (Storks) Türkçe Dublaj Brrip-Xvid İndir BroserBros 4 1,569 1 saat önce
Son Yorum: BroserBros
Filmin Yayınlanma Tarihi: 2018 Grinç (The Grinch) Türkçe Dublaj Brrip Xvid İndir BroserBros 3 201 2 saat önce
Son Yorum: abeleyth
Filmin Yayınlanma Tarihi: 2016 Kubo ve Sihirli Telleri (Kubo and the Two Strings) Türkçe Dublaj Brrip-Xvid İndir BroserBros 2 1,191 2 saat önce
Son Yorum: abeleyth
Filmin Yayınlanma Tarihi: 2019 Dora ve Kayıp Altın Şehri (Dora and the Lost City..) Türkçe Dublaj Brrip Xvid İndir BroserBros 2 247 12-12-2019, Saat: 15:30
Son Yorum: ismahil
Filmin Yayınlanma Tarihi: 2016 Pete ve Ejderhası (Pete's Dragon) Türkçe Dublaj Brrip Xvid İndir BroserBros 1 884 09-12-2019, Saat: 00:55
Son Yorum: BroserBros

Hızlı Menü:


Browsing: 1 Ziyaretçi