Filmbol Forum Film İndir BRRip XviD v Aladdin (2019) Türkçe Dublaj Brrip Xvid İndir
Mega linklerinin şikayet edilmemesi için global erişime kapatıp sadece yorum yapanlara açıyoruz. Bu linkleri gizleme işlemini mecburen yapıyoruz ve yorum yapmanızın siteye değil size faydası vardır. Teşekürler yazmayı çok görüp, Random/Spam mesajlar atarak Mega linklerini açmaya çalışan kullanıcılara önce süresiz ban, devam ederse IP ban atacağız.
Filmbol'da moderatör olmak ister misiniz? Bizimle iletişime geçmek için tıklayın!
Aladdin (2019) Türkçe Dublaj Brrip Xvid İndir
BroserBros
Aladdin (2019) Türkçe Dublaj Brrip Xvid İndir
10
1348
  • Derecelendirme: 0/5 - 0 oy
  • 1
  • 2
  • 3
  • 4
  • 5
Konuyu Okuyanlar:1 Ziyaretçi
Şuan Online!
Filmin Yayınlanma Tarihi: 2019 
WWW
Şuan Online!
BroserBros Kurucu Admin
*******
Admin










Aladdin



Teknik Detaylar

Kod :
General
Complete name                            : Aladdin.2019.BRRip.XviD.TR.Filmbol.avi
Format                                   : AVI
Format/Info                              : Audio Video Interleave
File size                                : 1.55 GiB
Duration                                 : 2h 7mn
Overall bit rate                         : 1 738 Kbps

Video
ID                                       : 0
Format                                   : MPEG-4 Visual
Format profile                           : [email protected]
Format settings, BVOP                    : No
Format settings, QPel                    : No
Format settings, GMC                     : No warppoints
Format settings, Matrix                  : Default (H.263)
Codec ID                                 : XVID
Codec ID/Hint                            : XviD
Duration                                 : 2h 7mn
Bit rate                                 : 1 597 Kbps
Width                                    : 720 pixels
Height                                   : 302 pixels
Display aspect ratio                     : 2.40:1
Frame rate                               : 23.976 fps
Color space                              : YUV
Chroma subsampling                       : 4:2:0
Bit depth                                : 8 bits
Scan type                                : Progressive
Compression mode                         : Lossy
Bits/(Pixel*Frame)                       : 0.306
Stream size                              : 1.43 GiB (92%)
Writing library                          : Lavc58.35.100

Audio
ID                                       : 1
Format                                   : MPEG Audio
Format version                           : Version 1
Format profile                           : Layer 3
Mode                                     : Joint stereo
Mode extension                           : MS Stereo
Codec ID                                 : 55
Codec ID/Hint                            : MP3
Duration                                 : 2h 7mn
Bit rate mode                            : Constant
Bit rate                                 : 128 Kbps
Channel(s)                               : 2 channels
Sampling rate                            : 48.0 KHz
Compression mode                         : Lossy
Stream size                              : 117 MiB (7%)
Alignment                                : Aligned on interleaves
Interleave, duration                     : 24 ms (0.58 video frame)



Film Detayları


Aladdin

Aladdin

Aladdin


Film Fragmanı


Film Detayları

Brrip İndir


Uptobox ile indir

Mega linki şuan da gizli. Kullanıma açmak için konuya yorum yapın ve ardından sayfayı yenileyin.

Mega


MediaFire ile indir

Şuan Offine!
Şuan Offine!
gece_yagmuru Uzman Üye
**
Uzman Üye

  • Konular0
  • Mesajlar11
  • Rep puanı 0
umarım güzeldir
Şuan Offine!
Şuan Offine!
edizshady Uzman Üye
**
Uzman Üye

  • Konular0
  • Mesajlar11
  • Rep puanı 0
umarım güzeldir
Şuan Offine!
Şuan Offine!
İSMAİL Yeni Üye
*
Üye

  • Konular0
  • Mesajlar4
  • Rep puanı 0
GÜZEL FİLM UZUN ZAMANDIR BEKLİYORDUM
Şuan Offine!
Şuan Offine!
efsanem Uzman Üye
**
Uzman Üye

  • Konular0
  • Mesajlar8
  • Rep puanı 0
GÜZEL FİLM
Şuan Offine!
Şuan Offine!
Ali.ozdemir.46 Yeni Üye
*
Üye

  • Konular0
  • Mesajlar5
  • Rep puanı 0
nice nice
Şuan Offine!
Şuan Offine!
hayri40 Uzman Üye
**
Uzman Üye

  • Konular0
  • Mesajlar19
  • Rep puanı 0
Güzel film teşekkürler
Şuan Offine!
Şuan Offine!
ercan Uzman Üye
**
Uzman Üye

  • Konular0
  • Mesajlar24
  • Rep puanı 0
tşk...
Şuan Offine!
Şuan Offine!
Ap0calypse Süper Üye
***
Super Üye

  • Konular0
  • Mesajlar39
  • Rep puanı 0
eline sağlık
Şuan Offine!
Şuan Offine!
ruknettin Uzman Üye
**
Uzman Üye

  • Konular0
  • Mesajlar8
  • Rep puanı 0
caferindönüşü çıkacak mı

mega linkleri çalışmıyor çoğu filmde


Konu ile Alakalı Benzer Konular
Konular Yazar Yorumlar Okunma Son Yorum
Filmin Yayınlanma Tarihi: 1999
Dövüş Kulübü (Fight Club) - 1999 - TR - BRRip XviD | tt0137523 BroserBros 2 264 41 dakika önce
Son Yorum: Furkan61
Filmin Yayınlanma Tarihi: 2018
Benim Adım Bolt (I Am Bolt) - 2016 - TR - BRRip XviD | tt4647900 BroserBros 1 275 1 saat önce
Son Yorum: BroserBros
Filmin Yayınlanma Tarihi: 2018
Curtiz (Curtiz) - 2018 - TR - BRRip XviD | tt6774588 BroserBros 1 211 1 saat önce
Son Yorum: BroserBros
Filmin Yayınlanma Tarihi: 2019
Bir Köpeğin Fantastik Hikayesi (L'extraordinaire voyage de Marona) - 2019 - TR - BRRip XviD | tt6785292 TheSteeL 0 6 1 saat önce
Son Yorum: TheSteeL
Filmin Yayınlanma Tarihi: 2019
The Jesus Rolls: Quintana Dönüyor (The Jesus Rolls) - 2019 - TR - BRRip XviD | tt5974030 TheSteeL 0 7 2 saat önce
Son Yorum: TheSteeL

Hızlı Menü: