Filmbol Forum Film İndir 720P v Aladdin (2019) Türkçe Dublaj BLURAY m720P İndir
Mega linklerinin şikayet edilmemesi için global erişime kapatıp sadece yorum yapanlara açıyoruz. Bu linkleri gizleme işlemini mecburen yapıyoruz ve yorum yapmanızın siteye değil size faydası vardır. Teşekürler yazmayı çok görüp, Random/Spam mesajlar atarak Mega linklerini açmaya çalışan kullanıcılara önce süresiz ban, devam ederse IP ban atacağız.
Filmbol'da moderatör olmak ister misiniz? Bizimle iletişime geçmek için tıklayın!
Aladdin (2019) Türkçe Dublaj BLURAY m720P İndir
BroserBros
Aladdin (2019) Türkçe Dublaj BLURAY m720P İndir
17
2235
  • Derecelendirme: 0/5 - 0 oy
  • 1
  • 2
  • 3
  • 4
  • 5
Konuyu Okuyanlar:1 Ziyaretçi
Şuan Online!
Filmin Yayınlanma Tarihi: 2019 
WWW
Şuan Online!
BroserBros Kurucu Admin
*******
Admin





Ses Kodek: AC3


Audio Coding 3 (AC3)






Aladdin



Teknik Detaylar

Kod :
General
Complete name                            : Aladdin.2019.m720p.BLURAY.x264.TR.Filmbol.mkv
Format                                   : Matroska
Format version                           : Version 4 / Version 2
File size                                : 1.33 GiB
Duration                                 : 2h 7mn
Overall bit rate                         : 1 486 Kbps
Movie name                               : Aladdin (2019) - Filmbol.org
Encoded date                             : UTC 2019-09-14 09:16:37
Writing application                      : mkvmerge v35.0.0 ('All The Love In The World') 64-bit
Writing library                          : libebml v1.3.9 + libmatroska v1.5.2

Video
ID                                       : 1
Format                                   : AVC
Format/Info                              : Advanced Video Codec
Format profile                           : [email protected]
Format settings, CABAC                   : Yes
Format settings, ReFrames                : 4 frames
Codec ID                                 : V_MPEG4/ISO/AVC
Duration                                 : 2h 7mn
Bit rate                                 : 1 100 Kbps
Width                                    : 1 280 pixels
Height                                   : 534 pixels
Display aspect ratio                     : 2.40:1
Original display aspect ratio            : 2.40:1
Frame rate mode                          : Constant
Frame rate                               : 23.976 (24000/1001) fps
Color space                              : YUV
Chroma subsampling                       : 4:2:0
Bit depth                                : 8 bits
Scan type                                : Progressive
Bits/(Pixel*Frame)                       : 0.067
Stream size                              : 1 007 MiB (74%)
Title                                    : 720P - Filmbol.org
Writing library                          : x264 core 157
Default                                  : Yes
Forced                                   : No

Audio
ID                                       : 2
Format                                   : AC-3
Format/Info                              : Audio Coding 3
Mode extension                           : CM (complete main)
Format settings, Endianness              : Big
Codec ID                                 : A_AC3
Duration                                 : 2h 7mn
Bit rate mode                            : Constant
Bit rate                                 : 384 Kbps
Channel(s)                               : 6 channels
Channel positions                        : Front: L C R, Side: L R, LFE
Sampling rate                            : 48.0 KHz
Frame rate                               : 31.250 fps (1536 spf)
Compression mode                         : Lossy
Stream size                              : 352 MiB (26%)
Title                                    : Türkçe - Filmbol.org
Language                                 : Turkish
Default                                  : Yes
Forced                                   : No

Text
ID                                       : 3
Format                                   : UTF-8
Codec ID                                 : S_TEXT/UTF8
Codec ID/Info                            : UTF-8 Plain Text
Duration                                 : 1s 334ms
Bit rate                                 : 101 bps
Count of elements                        : 1
Stream size                              : 17.0 Bytes (0%)
Title                                    : KISIM
Language                                 : Turkish
Default                                  : Yes
Forced                                   : Yes



Film Detayları


Aladdin

Aladdin

Aladdin


Film Fragmanı


Film Detayları

Mini 720P İndir


Uptobox ile indir

Mega linki şuan da gizli. Kullanıma açmak için konuya yorum yapın ve ardından sayfayı yenileyin.

Mega


MediaFire ile indir

Şuan Offine!
Şuan Offine!
back-ir Süper Üye
***
Super Üye

  • Konular0
  • Mesajlar29
  • Rep puanı 1
Selam sana admin, ufaklık merakla bekliyordu.
Şuan Offine!
Şuan Offine!
stb Uzman Üye
**
Uzman Üye

  • Konular0
  • Mesajlar22
  • Rep puanı 0
Teşekkürler
Şuan Offine!
Şuan Offine!
Selocan Uzman Üye
**
Uzman Üye

  • Konular0
  • Mesajlar14
  • Rep puanı 0
Teşekkürler.
Şuan Offine!
Şuan Offine!
Erdem54 Yeni Üye
*
Üye

  • Konular0
  • Mesajlar1
  • Rep puanı 0
Film çok güzel izlemenizi tavsiye ederim
Şuan Offine!
Şuan Offine!
Leo12 Uzman Üye
**
Uzman Üye

  • Konular0
  • Mesajlar7
  • Rep puanı 0
Güzel film
Şuan Offine!
Şuan Offine!
oodogan Yeni Üye
*
Üye

  • Konular0
  • Mesajlar1
  • Rep puanı 0
teşekkür ederim.
Şuan Offine!
Şuan Offine!
agresif Uzman Üye
**
Uzman Üye

  • Konular0
  • Mesajlar20
  • Rep puanı 0
teşekkürler
Şuan Offine!
Şuan Offine!
kirlimendil Uzman Üye
**
Uzman Üye

  • Konular0
  • Mesajlar6
  • Rep puanı 0
guzel fılm
Şuan Offine!
Şuan Offine!
barakali Uzman Üye
**
Uzman Üye

  • Konular0
  • Mesajlar15
  • Rep puanı 0
teşekkürler


Konu ile Alakalı Benzer Konular
Konular Yazar Yorumlar Okunma Son Yorum
Filmin Yayınlanma Tarihi: 2019
Beyaz Kentin Sessizliği (El silencio de la ciudad blanca) - 2019 - TR+ORG - 720P | tt8393332 BroserBros 1 255 , Saat: 15:38
Son Yorum: BroserBros
Filmin Yayınlanma Tarihi: 2019
Bir Köpeğin Fantastik Hikayesi (L'extraordinaire voyage de Marona) - 2019 - TR+ORG - 720P | tt6785292 TheSteeL 0 28 02-03-2021, Saat: 21:40
Son Yorum: TheSteeL
Filmin Yayınlanma Tarihi: 2019
Godzilla 2: Canavarlar Kralı (King of the Monsters) Türkçe Dublaj BLURAY m720P İndir BroserBros 15 1,697 02-03-2021, Saat: 18:39
Son Yorum: OsmanSKMN
Filmin Yayınlanma Tarihi: 2019
Onur Madalyası (The Last Full Measure) - 2019 - TR+ORG - 720P | tt0783640 TheSteeL 0 49 01-03-2021, Saat: 21:23
Son Yorum: TheSteeL
Filmin Yayınlanma Tarihi: 2019
Çılgın Kahraman 2 (Undercover Brother 2) - 2019 - TR+ORG - 720P | tt6843446 TheSteeL 0 55 28-02-2021, Saat: 21:03
Son Yorum: TheSteeL

Hızlı Menü: