Filmbol Forum Film İndir 1080P v Aladdin (2019) Türkçe Dublaj BLURAY m1080P İndir
Filmbol'da moderatör olmak ister misiniz? Bizimle iletişime geçmek için tıklayın!
Aladdin (2019) Türkçe Dublaj BLURAY m1080P İndir
BroserBros
Aladdin (2019) Türkçe Dublaj BLURAY m1080P İndir
30
2700
  • Derecelendirme: 0/5 - 0 oy
  • 1
  • 2
  • 3
  • 4
  • 5
Konuyu Okuyanlar:1 Ziyaretçi
Şuan Online!
Filmin Yayınlanma Tarihi: 2019 
Şuan Online!
BroserBros Kurucu Admin
*******
Admin

indirme türü


Bulut + Premium

Vizyon Tarihi


24 Mayıs 2019

Boyutlar


2,22

diller


[TR]

altyazilar


KISIM [Eklenebilir]

Video Format: Mkv


Matroska (.MKV)

Video Detay


MPEG-4, 2100 Kbps, 1,88 GB

imdb puanı


7,2 / 10,0 / 130,000

süre


128 dakika

Ses Kodek: AC3


Audio Coding 3 (AC3)

Ses Detay


384 Kbps, 6 Kanal, 352Mb

Editör Puanı


7,4

Genislik Yukseklik


1920-800

sürüm


x264 | 1080P




Aladdin


Film Detayları

Aladdin (2019) Türkçe Dublaj Bluray Brrip-Xvid İndir | Kısa özet:
Aladdin, sihirli bir lamba sayesinde sevdiği kıza ulaşmaya çalışırken, kendisini zorlu bir maceranın içerisinde bulan bir gencin hikayesini konu ediyor. Aladdin, zamanını Agrabah şehrinde pazardan yiyecek çalarak geçiren fakir bir gençtir. Gecelerini, şehrin farklı bölgelerinde uyuyarak geçirirken, gündüzlerini ise hırsızlığa ayırmaktadır. Ancak yaşam tarzına rağmen aslında Aladdin'in altın gibi bir kalbi vardır. Onun macerası, tuhaf babası tarafından zorla evlendirilmeye çalışılan bir genç kızla tanıştığı zaman başlar. Bu genç kız aslında ülkenin sultanının kızı olan Prenses Jasmine'dir. Aladdin'in şansı, Harikalar Mağarası'ndan sihirli bir lamba aldığında aniden değişir. Bilmeden aldığı bu lambada, eğlenceye düşkün, neşeli ve 3 dileğini gerçekleştirme şansına sahip olan bir cin vardır. Aladdin'in lambanın cini sayesinde sevdiği kıza ulaşmaya çalışırken bilmediği şey ise Sultan'ın danışmanı Jafar'ın hem Aladdin hem de lamba için kendi planları olduğudur...
Aladdin Filmi Imdb'den 130,000 kişi tarafından oylandı ve 7,2 puan aldı. Bu film için editör puanı 7,4 olarak belirlendi. İyi Seyirler!


Teknik Detaylar

Kod :
General
Complete name                            : Aladdin.2019.m1080p.BLURAY.x264.TR.Filmbol.mkv
Format                                   : Matroska
Format version                           : Version 4 / Version 2
File size                                : 2.22 GiB
Duration                                 : 2h 7mn
Overall bit rate                         : 2 486 Kbps
Movie name                               : Aladdin (2019) - Filmbol.org
Encoded date                             : UTC 2019-09-14 09:17:44
Writing application                      : mkvmerge v35.0.0 ('All The Love In The World') 64-bit
Writing library                          : libebml v1.3.9 + libmatroska v1.5.2

Video
ID                                       : 1
Format                                   : AVC
Format/Info                              : Advanced Video Codec
Format profile                           : High@L4.1
Format settings, CABAC                   : Yes
Format settings, ReFrames                : 4 frames
Codec ID                                 : V_MPEG4/ISO/AVC
Duration                                 : 2h 7mn
Bit rate                                 : 2 100 Kbps
Width                                    : 1 920 pixels
Height                                   : 800 pixels
Display aspect ratio                     : 2.40:1
Frame rate mode                          : Constant
Frame rate                               : 23.976 (24000/1001) fps
Color space                              : YUV
Chroma subsampling                       : 4:2:0
Bit depth                                : 8 bits
Scan type                                : Progressive
Bits/(Pixel*Frame)                       : 0.057
Stream size                              : 1.88 GiB (84%)
Title                                    : 1080P - Filmbol.org
Writing library                          : x264 core 157
Default                                  : Yes
Forced                                   : No

Audio
ID                                       : 2
Format                                   : AC-3
Format/Info                              : Audio Coding 3
Mode extension                           : CM (complete main)
Format settings, Endianness              : Big
Codec ID                                 : A_AC3
Duration                                 : 2h 7mn
Bit rate mode                            : Constant
Bit rate                                 : 384 Kbps
Channel(s)                               : 6 channels
Channel positions                        : Front: L C R, Side: L R, LFE
Sampling rate                            : 48.0 KHz
Frame rate                               : 31.250 fps (1536 spf)
Compression mode                         : Lossy
Stream size                              : 352 MiB (15%)
Title                                    : Türkçe - Filmbol.org
Language                                 : Turkish
Default                                  : Yes
Forced                                   : No

Text
ID                                       : 3
Format                                   : UTF-8
Codec ID                                 : S_TEXT/UTF8
Codec ID/Info                            : UTF-8 Plain Text
Duration                                 : 1s 334ms
Bit rate                                 : 101 bps
Count of elements                        : 1
Stream size                              : 17.0 Bytes (0%)
Title                                    : KISIM
Language                                 : Turkish
Default                                  : Yes
Forced                                   : Yes



Film Detayları


Aladdin

Aladdin

Aladdin


Film Fragmanı


Film Detayları

Mini 1080P İndir


Uptobox ile indir

LetsUpload ile indir

Mega ile indir

MediaFire ile indir

Google Drive linki şuan da gizli. Kullanıma açmak için konuya yorum yapın ve ardından sayfayı yenileyin. Ayrıca bu linki açtığınızda reklamsız olarak erişebileceğinizi unutmayın.

Google Drive

Şuan Offine!
Şuan Offine!
kelamcı Yeni Üye
*
Üye

  • Konular0
  • Mesajlar3
  • Rep puanı 0
Filmin güzel olmasını temenni ediyorum. Pek güzel yorumlar yapılmamıştı.

Alaadin.
Şuan Offine!
Şuan Offine!
kimsinsen Uzman Üye
**
Uzman Üye

  • Konular0
  • Mesajlar13
  • Rep puanı 0
Teşekkürler
Şuan Offine!
Şuan Offine!
zirve212 Yeni Üye
*
Üye

  • Konular0
  • Mesajlar1
  • Rep puanı 0
tşkler
Şuan Offine!
Şuan Offine!
Aspirin46 Süper Üye
***
Super Üye

  • Konular0
  • Mesajlar54
  • Rep puanı 0
SÜPER
Şuan Offine!
Şuan Offine!
Hellenger28 Uzman Üye
**
Uzman Üye

  • Konular0
  • Mesajlar15
  • Rep puanı 0
Harika bir film
Şuan Offine!
Şuan Offine!
enique12 Yeni Üye
*
Üye

  • Konular0
  • Mesajlar2
  • Rep puanı 0
eline sağlık 
Smile
Şuan Offine!
Şuan Offine!
Murat94 Süper Üye
***
Super Üye

  • Konular0
  • Mesajlar36
  • Rep puanı 0
Süper
Şuan Offine!
Şuan Offine!
mehmetozbakir Yeni Üye
*
Üye

  • Konular0
  • Mesajlar5
  • Rep puanı 0
süper
Şuan Offine!
Şuan Offine!
ugurtatar Yeni Üye
*
Üye

  • Konular0
  • Mesajlar2
  • Rep puanı 0
Ellerinize sağlık ??


Konu ile Alakalı Benzer Konular
Konular Yazar Yorumlar Okunma Son Yorum
Filmin Yayınlanma Tarihi: 2019
15 Dakika Savaş (L'intervention) - 2019 - TR+ORG - 1080P BroserBros 0 15 11 saat önce
Son Yorum: BroserBros
Filmin Yayınlanma Tarihi: 2019
Gel Babacığına (Come to Daddy) - 2019 - TR+ORG - 1080P BroserBros 0 33 22-11-2020, Saat: 17:43
Son Yorum: BroserBros
Filmin Yayınlanma Tarihi: 2019
San Francisco'daki Son Siyah Adam (The Last Black Man in San Francisco) - 2019 - TR+ORG - 1080P BroserBros 0 36 22-11-2020, Saat: 17:30
Son Yorum: BroserBros
Filmin Yayınlanma Tarihi: 2019
Ralph ve İnternet (Ralph Breaks the Internet) Türkçe Dublaj BLURAY m1080P İndir BroserBros 15 1,097 21-11-2020, Saat: 18:10
Son Yorum: miyaavc
Filmin Yayınlanma Tarihi: 2019
Beni Unutma (Remember Me) - 2019 - TR+ORG - 1080P BroserBros 0 57 21-11-2020, Saat: 16:14
Son Yorum: BroserBros

Hızlı Menü: