Filmbol Forum Film İndir BRRip XviD v Aksiyon Parkı (Action Point) Türkçe Dublaj BRRip XviD İndir
Mega linklerinin şikayet edilmemesi için global erişime kapatıp sadece yorum yapanlara açıyoruz. Bu linkleri gizleme işlemini mecburen yapıyoruz ve yorum yapmanızın siteye değil size faydası vardır. Teşekürler yazmayı çok görüp, Random/Spam mesajlar atarak Mega linklerini açmaya çalışan kullanıcılara önce süresiz ban, devam ederse IP ban atacağız.
Filmbol'da moderatör olmak ister misiniz? Bizimle iletişime geçmek için tıklayın!
Aksiyon Parkı (Action Point) Türkçe Dublaj BRRip XviD İndir
BroserBros
Aksiyon Parkı (Action Point) Türkçe Dublaj BRRip XviD İndir
0
300
  • Derecelendirme: 0/5 - 0 oy
  • 1
  • 2
  • 3
  • 4
  • 5
Konuyu Okuyanlar:1 Ziyaretçi
Şuan Online!
Filmin Yayınlanma Tarihi: 2018 
WWW
Şuan Online!
BroserBros Kurucu Admin
*******
Admin








 Aksiyon Parkı



Tuhaf biri olan D.C., raylı sistemlerin azami eğlence için minimum güvenlikle tasarlandığı, düşük ücretli, kontrol dışı bir eğlence parkının sahibidir. Tam D.C.'nin ona yabancılaşmış olan genç kızı Boogie'nin ziyareti sırasında, yakınlara kurumsal bir mega-park açılır ve D.C.'nin parkı Action Point'in geleceğini tehlikeye atar. Sevgili tema parkını ve kızıyla olan ilişkisini kurtarmak için, D.C. ve tuhaf ekibi her türlü numarayı yapacak ve her şeyi göze alacaktır...
Filmin yönetmen koltuğunda Tim Kirkby otururken, senaristliğini John Altschuler ve Johhny Knoxville yapmaktadır.

Aksiyon Parkı (2018) (Action Point) Filmi Imdb'den 10,000 kişi tarafından oylandı ve 5,1 puan aldı. Bu film için editör puanı 5,5 olarak belirlendi. İyi Seyirler!

Teknik Detaylar

Kod :
General
Complete name                            : /root/Desktop/7/Aksiyon.Parkı.2018.BRRip.XviD.TR.Filmbol.avi
Format                                   : AVI
Format/Info                              : Audio Video Interleave
File size                                : 868 MiB
Duration                                 : 1h 24mn
Overall bit rate                         : 1 434 Kbps

Video
ID                                       : 0
Format                                   : MPEG-4 Visual
Format profile                           : Advanced [email protected]
Format settings, BVOP                    : 2
Format settings, QPel                    : No
Format settings, GMC                     : No warppoints
Format settings, Matrix                  : Default (H.263)
Codec ID                                 : DIVX
Codec ID/Info                            : Project Mayo
Codec ID/Hint                            : DivX 4
Duration                                 : 1h 24mn
Bit rate                                 : 1 293 Kbps
Width                                    : 720 pixels
Height                                   : 390 pixels
Display aspect ratio                     : 1.85:1
Frame rate                               : 23.976 (24000/1001) fps
Color space                              : YUV
Chroma subsampling                       : 4:2:0
Bit depth                                : 8 bits
Scan type                                : Progressive
Compression mode                         : Lossy
Bits/(Pixel*Frame)                       : 0.192
Stream size                              : 783 MiB (90%)
Writing library                          : XviD 67

Audio
ID                                       : 1
Format                                   : MPEG Audio
Format version                           : Version 1
Format profile                           : Layer 3
Codec ID                                 : 55
Codec ID/Hint                            : MP3
Duration                                 : 1h 24mn
Bit rate mode                            : Constant
Bit rate                                 : 128 Kbps
Channel(s)                               : 2 channels
Sampling rate                            : 48.0 KHz
Compression mode                         : Lossy
Stream size                              : 77.5 MiB (9%)
Alignment                                : Aligned on interleaves
Interleave, duration                     : 24 ms (0.58 video frame)

Film Detayları


 Aksiyon Parkı

 Aksiyon Parkı

 Aksiyon Parkı


Film Fragmanı


Film Detayları

Brrip İndir

Uptobox ile indir

1Fichier ile indir

1Fichier'den İndiremiyor musun? Tıklayın!


Mega linki şuan da gizli. Kullanıma açmak için konuya yorum yapın ve ardından sayfayı yenileyin.

Mega


MediaFire ile indir



Konu ile Alakalı Benzer Konular
Konular Yazar Yorumlar Okunma Son Yorum
Filmin Yayınlanma Tarihi: 2019
Midway (Midway) - 2019 - TR - BRRip XviD BroserBros 1 110 6 saat önce
Son Yorum: Furkan61
Filmin Yayınlanma Tarihi: 2016
X-Men: Apocalypse (2016) Türkçe Dublaj Brrip-Xvid İndir BroserBros 2 2,382 04-03-2021, Saat: 22:37
Son Yorum: Furkan61
Filmin Yayınlanma Tarihi: 2002
Akıl Oyunları (A Beautiful Mind) - 2001 - TR - BRRip XviD | tt0268978 BroserBros 2 249 04-03-2021, Saat: 18:03
Son Yorum: Furkan61
  Her Zaman Şeytan (The Devil All the Time) - 2020 - TR - BRRip XviD | tt7395114 TheSteeL 1 59 04-03-2021, Saat: 17:50
Son Yorum: Furkan61
Filmin Yayınlanma Tarihi: 2020
Baba Aranıyor (Se busca papá) - 2020 - TR - BRRip XviD | tt12721188 TheSteeL 0 48 03-03-2021, Saat: 21:12
Son Yorum: TheSteeL

Hızlı Menü: