Hoşgeldin, Ziyaretçi: Giriş Yap Üye Ol


Konuyu Oyla:
  • Derecelendirme: 0/5 - 0 oy
  • 1
  • 2
  • 3
  • 4
  • 5
Ak Kuyruklu Geyik Avcısının Mirası (The Legacy of a..) Türkçe Dublaj m720P İndir
#1
Filmin Yayınlanma Tarihi: 2018 

indirme türü


Bulut + Premium

vizyon tarihi


06 Haziran 2018

Boyutlar


0,99

diller


[TR]

altyazilar


Yok [Eklenebilir]

Video Format: Mkv


Matroska (.MKV)

Video Detay


MPEG-4, 1289 Kbps, 0,76GB

Ses Kodek: AC3


Audio Coding 3 (AC3)

süre


83 dakika

Ses Detay


384 Kbps, 6 Kanal, 229Mb

rarsifresi


filmbol.org

Editör Puanı


5,0

Genislik Yukseklik


1280-720

sürüm


x264 | m720P



Film Detayları

Ak Kuyruklu Geyik Avcısının Mirası (2018) Türkçe Dublaj Bluray Brrip-Xvid İndir | Kısa özet:
Büyük avcı Buck Ferguson (Josh Brolin) ve güvenilir kameramanı Don (Danny McBride), Buck'ın küçük oğlu (Montana Jordan) ile yeniden bağlantı kurmak için epik bir hafta sonu macerasına başladılar.
Ak Kuyruklu Geyik Avcısının Mirası (The Legacy of a Whitetail Deer Hunter) Filmi İmdb'den 3.000 kişi tarafından oylandı ve 5,5 puan aldı. Bu film için editör puanı 5,0 olarak belirlendi. İyi Seyirler!


Teknik Detaylar




Kod:
General
Complete name                            : The.Legacy.of.a.Whitetail.Deer.Hunter.2018.m720P.BLURAY.x264.TR.Filmbol.mkv
Format                                   : Matroska
Format version                           : Version 4 / Version 2
File size                                : 998 MiB
Duration                                 : 1 h 23 min
Overall bit rate                         : 1 675 kb/s
Movie name                               : The Legacy of a Whitetail Deer Hunter / m720P / Filmbol.org 
Encoded date                             : UTC 2018-09-01 16:27:23
Writing application                      : mkvmerge v15.0.0 ('Duel with the Devil') 64-bit
Writing library                          : libebml v1.3.5 + libmatroska v1.4.7

Video
ID                                       : 1
Format                                   : AVC
Format/Info                              : Advanced Video Codec
Format profile                           : Main@L3.1
Format settings                          : CABAC / 2 Ref Frames
Format settings, CABAC                   : Yes
Format settings, ReFrames                : 2 frames
Codec ID                                 : V_MPEG4/ISO/AVC
Duration                                 : 1 h 23 min
Bit rate                                 : 1 289 kb/s
Width                                    : 1 280 pixels
Height                                   : 720 pixels
Display aspect ratio                     : 16:9
Frame rate mode                          : Constant
Frame rate                               : 23.976 (24000/1001) FPS
Color space                              : YUV
Chroma subsampling                       : 4:2:0
Bit depth                                : 8 bits
Scan type                                : Progressive
Bits/(Pixel*Frame)                       : 0.058
Stream size                              : 768 MiB (77%)
Title                                    : m720P - Filmbol.org
Default                                  : Yes
Forced                                   : No

Audio
ID                                       : 2
Format                                   : AC-3
Format/Info                              : Audio Coding 3
Codec ID                                 : A_AC3
Duration                                 : 1 h 23 min
Bit rate mode                            : Constant
Bit rate                                 : 384 kb/s
Channel(s)                               : 6 channels
Channel positions                        : Front: L C R, Side: L R, LFE
Sampling rate                            : 48.0 kHz
Frame rate                               : 31.250 FPS (1536 SPF)
Bit depth                                : 16 bits
Compression mode                         : Lossy
Stream size                              : 229 MiB (23%)
Title                                    : Türkçe - Filmbol.org
Language                                 : Turkish
Service kind                             : Complete Main
Default                                  : Yes
Forced                                   : No

Film Detayları


Ak Kuyruklu Geyik Avcisinin Mirasi

Ak Kuyruklu Geyik Avcisinin Mirasi

Ak Kuyruklu Geyik Avcisinin Mirasi

Ak Kuyruklu Geyik Avcisinin Mirasi

Ak Kuyruklu Geyik Avcisinin Mirasi


Film Fragmanı


Film Detayları

Mini 720P İndir


Turbobit İle İndir

Uptobox ile indir

Cloud Ru ile indir

Dosya Co ile indir

Dosya Upload ile indir

Mega ile indir

 
Alinti
  


Hızlı Menü:


Şu anda bu konuyu okuyanlar: 1 Ziyaretçi