Filmbol Forum Film İndir BRRip XviD v Ak Kuyruklu Geyik Avcısının Mirası (The Legacy of a..) Türkçe Dublaj Brrip-Xvid İndir
Moderatör Alımları Başladı! Başvuru yapmak için tıklayın.
Filmbol Premium'da %50'e varan indirim fırsatı!
Ak Kuyruklu Geyik Avcısının Mirası (The Legacy of a..) Türkçe Dublaj Brrip-Xvid İndir
DRMOV
Ak Kuyruklu Geyik Avcısının Mirası (The Legacy of a..) Türkçe Dublaj Brrip-Xvid İndir
0
472
  • Derecelendirme: 0/5 - 0 oy
  • 1
  • 2
  • 3
  • 4
  • 5
Konuyu Okuyanlar:1 Ziyaretçi
Şuan Offine!
Filmin Yayınlanma Tarihi: 2018 
Şuan Offine!
DRMOV Uzman Moderatör
*****
images/FBT/uzman_mod.png
  • Konular24
  • Mesajlar24
  • Rep puanı 2

indirme türü


Bulut + Premium

Vizyon Tarihi


06 Haziran 2018

Boyutlar


1,02

diller


[TR]

altyazilar


Yok [Eklenebilir]

Video Format: Avi


Audio Video Interleave (.AVI)

Video Detay


MPEG-4, 1587 Kbps, 0,94GB

süre


83 dakika

Ses Kodek: MP3


MPEG-1 Audio Layer III (MP3)

Ses Detay


128 Kbps, 2 Kanal, 76Mb

rarsifresi


filmbol.org

Editör Puanı


5,0

Genislik Yukseklik


720-304

sürüm


h263 | WEBRip-Xvid


Film Detayları

Ak Kuyruklu Geyik Avcısının Mirası (2018) Türkçe Dublaj Bluray Brrip-Xvid İndir | Kısa özet:
Büyük avcı Buck Ferguson (Josh Brolin) ve güvenilir kameramanı Don (Danny McBride), Buck'ın küçük oğlu (Montana Jordan) ile yeniden bağlantı kurmak için epik bir hafta sonu macerasına başladılar.
Ak Kuyruklu Geyik Avcısının Mirası (The Legacy of a Whitetail Deer Hunter) Filmi İmdb'den 3.000 kişi tarafından oylandı ve 5,5 puan aldı. Bu film için editör puanı 5,0 olarak belirlendi. İyi Seyirler!


Teknik Detaylar



Kod :
General
Complete name                            : The.Legacy.of.a.Whitetail.Deer.Hunter.2018.WEBRip-XviD.TR.Filmbol.avi
Format                                   : AVI
Format/Info                              : Audio Video Interleave
File size                                : 1.00 GiB
Duration                                 : 1 h 23 min
Overall bit rate                         : 1 728 kb/s

Video
ID                                       : 0
Format                                   : MPEG-4 Visual
Format profile                           : Simple@L5
Format settings, BVOP                    : No
Format settings, QPel                    : No
Format settings, GMC                     : No warppoints
Format settings, Matrix                  : Default (H.263)
Codec ID                                 : XVID
Codec ID/Hint                            : XviD
Duration                                 : 1 h 23 min
Bit rate                                 : 1 587 kb/s
Width                                    : 720 pixels
Height                                   : 304 pixels
Display aspect ratio                     : 2.40:1
Frame rate                               : 23.976 (24000/1001) FPS
Color space                              : YUV
Chroma subsampling                       : 4:2:0
Bit depth                                : 8 bits
Scan type                                : Progressive
Compression mode                         : Lossy
Bits/(Pixel*Frame)                       : 0.302
Stream size                              : 945 MiB (92%)
Writing library                          : Lavc58.1.100

Audio
ID                                       : 1
Format                                   : MPEG Audio
Format version                           : Version 1
Format profile                           : Layer 3
Format settings                          : Joint stereo / MS Stereo
Codec ID                                 : 55
Codec ID/Hint                            : MP3
Duration                                 : 1 h 23 min
Bit rate mode                            : Constant
Bit rate                                 : 128 kb/s
Channel(s)                               : 2 channels
Sampling rate                            : 48.0 kHz
Frame rate                               : 41.667 FPS (1152 SPF)
Compression mode                         : Lossy
Stream size                              : 76.2 MiB (7%)
Alignment                                : Aligned on interleaves
Interleave, duration                     : 24  ms (0.58 video frame)

Film Detayları


Ak Kuyruklu Geyik Avcisinin Mirasi

Ak Kuyruklu Geyik Avcisinin Mirasi

Ak Kuyruklu Geyik Avcisinin Mirasi

Ak Kuyruklu Geyik Avcisinin Mirasi

Ak Kuyruklu Geyik Avcisinin Mirasi


Film Fragmanı


Film Detayları

Brrip İndir


Uptobox ile indir

CloudRu ile indir

ig2d

Mega ile indir



Konu ile Alakalı Benzer Konular
Konular Yazar Yorumlar Okunma Son Yorum
Filmin Yayınlanma Tarihi: 2019
Kelly Çetesi'nin Gerçek Hikayesi (True History of the Kelly Gang) - 2019 - TR - BRRip XviD BroserBros 0 74 11-07-2020, Saat: 20:23
Son Yorum: BroserBros
Filmin Yayınlanma Tarihi: 2019
İçerideki Adam: Muhbir (Inside Man: Most Wanted) - 2019 - TR - BRRip XviD BroserBros 0 76 11-07-2020, Saat: 20:10
Son Yorum: BroserBros
Filmin Yayınlanma Tarihi: 2018
Düzenbazlar Kulübü (Billionaire Boys Club) - 2018 - TR - BRRip XviD BroserBros 0 73 11-07-2020, Saat: 19:58
Son Yorum: BroserBros
Filmin Yayınlanma Tarihi: 2020
Özgürlük Listesi (The F**k-It List) - 2020 - TR - BRRip XviD BroserBros 0 41 10-07-2020, Saat: 23:09
Son Yorum: BroserBros
Filmin Yayınlanma Tarihi: 2019
Travma Merkezi (Trauma Center) - 2019 - TR - BRRip XviD BroserBros 0 38 10-07-2020, Saat: 22:53
Son Yorum: BroserBros

Hızlı Menü: