Filmbol Forum Film İndir UHD - ULTRA HD - 4K v Ajanlar İş Başında (Spies in Disguise) - 2019 - TR+ENG - UHD (4K)
Moderatör Alımları Başladı! Başvuru yapmak için tıklayın.
Filmbol Premium'da %50'e varan indirim fırsatı!
Ajanlar İş Başında (Spies in Disguise) - 2019 - TR+ENG - UHD (4K)
BroserBros
Ajanlar İş Başında (Spies in Disguise) - 2019 - TR+ENG - UHD (4K)
0
107
  • Derecelendirme: 0/5 - 0 oy
  • 1
  • 2
  • 3
  • 4
  • 5
Konuyu Okuyanlar:1 Ziyaretçi
Şuan Online!
Şuan Online!
BroserBros Kurucu Admin
*******
Admin

Vizyon Tarihi


10 Ocak 2020

imdb puanı


6,8 / 21,000

süre


102 dakika

Editör Puanı


6,9 / 10

Video Format: Mkv


Matroska (.MKV)

Ses Kodek: AC3


Audio Coding 3 (AC3)

sürüm


h265 | 4K | ULTRA HD BLURAY

Boyutlar


5,62 GB



 Ajanlar İş Başında



Lance Sterling, uluslararası casusluluğun yüksek oktanlı dünyasının en önde gelen ismidir. Dünyanın en harika casusu olan Lance havalı, sevimli ve süper yetenekli olmanın yanı sıra dünyayı kurtarmanın günlük işlerinden biri olduğunun farkındadır, bu işte ondan iyisi de yoktur. Genç Walter ise Lance'in neredeyse tam tersidir. Zekasıyla göz kamaştıran Walter'ın sosyal becerileri ne yazık ki o kadar da gelişmiş değildir. Ancak Walter da sosyalleşmek konusundaki eksikliğini kapatmak için zekasını kullanmakta ve buluşlar yapmaktadır. Walter, Lance'in tehlikeli görevlerinde kullandığı araçları icat eden bilimsel dehadır. Fakat olaylar beklenmedik bir dönüş yaptığında, Walter ve Lance aniden yeni bir şekilde birbirlerine güvenmek zorunda kalırlar. Eğer bu birbiriyle alakası olmayan ikili bir takım olarak çalışmayı öğrenemezse, tüm dünya tehlike altında olacaktır...

Ajanlar İş Başında (2019) (Spies in Disguise) Filmi Imdb'den 21,000 kişi tarafından oylandı ve 6,8 puan aldı. Bu film için editör puanı 6,9 olarak belirlendi. İyi Seyirler!

Teknik Detaylar

Kod :
General
Unique ID                                : 105334997815471652881526856277460205260 (0x4F3EC85BA691AC7FB539FA354F573ECC)
Complete name                            : /root/Desktop/7/Ajanlar.İş.Başında.2019.4K.UHD.BluRay.x265.TR.ENG.Filmbol.mkv
Format                                  : Matroska
Format version                          : Version 4 / Version 2
File size                                : 5.62 GiB
Duration                                : 1h 41mn
Overall bit rate                        : 7 898 Kbps
Movie name                              : Ajanlar İş Başında (2019) - Filmbol.org
Encoded date                            : UTC 2020-04-19 13:52:59
Writing application                      : mkvmerge v8.8.0 ('Wind at my back') 64bit
Writing library                          : libebml v1.3.3 + libmatroska v1.4.4

Video
ID                                      : 1
Format                                  : HEVC
Format/Info                              : High Efficiency Video Coding
Format profile                          : Main 10@L5.1@High
Codec ID                                : V_MPEGH/ISO/HEVC
Duration                                : 1h 41mn
Bit rate                                : 6 872 Kbps
Width                                    : 3 840 pixels
Height                                  : 1 612 pixels
Display aspect ratio                    : 2.40:1
Frame rate mode                          : Constant
Frame rate                              : 23.976 (24000/1001) fps
Color space                              : YUV
Chroma subsampling                      : 4:2:0
Bit depth                                : 10 bits
Bits/(Pixel*Frame)                      : 0.046
Stream size                              : 4.89 GiB (87%)
Title                                    : 4K - Filmbol.org
Writing library                          : x265 3.3+2-gbe2d82093:[Windows][GCC 10.0.1][64 bit] 10bit
Encoding settings                        : cpuid=1111039 / frame-threads=5 / numa-pools=36 / wpp / no-pmode / no-pme / no-psnr / no-ssim / log-level=2 / input-csp=1 / input-res=3840x1612 / interlace=0 / total-frames=146513 / level-idc=51 / high-tier=1 / uhd-bd=0 / ref=4 / no-allow-non-conformance / repeat-headers / annexb / aud / hrd / info / hash=0 / no-temporal-layers / no-open-gop / min-keyint=1 / keyint=24 / gop-lookahead=0 / bframes=4 / b-adapt=2 / b-pyramid / bframe-bias=0 / rc-lookahead=25 / lookahead-slices=4 / scenecut=40 / hist-scenecut=0 / radl=0 / no-splice / no-intra-refresh / ctu=64 / min-cu-size=8 / rect / no-amp / max-tu-size=32 / tu-inter-depth=1 / tu-intra-depth=1 / limit-tu=0 / rdoq-level=2 / dynamic-rd=0.00 / no-ssim-rd / signhide / no-tskip / nr-intra=0 / nr-inter=0 / no-constrained-intra / no-strong-intra-smoothing / max-merge=3 / limit-refs=3 / limit-modes / me=3 / subme=3 / merange=57 / temporal-mvp / no-frame-dup / no-hme / weightp / no-weightb / no-analyze-src-pics / deblock=-3:-3 / no-sao / no-sao-non-deblock / rd=4 / selective-sao=0 / no-early-skip / rskip / no-fast-intra / no-tskip-fast / no-cu-lossless / no-b-intra / no-splitrd-skip / rdpenalty=0 / psy-rd=2.00 / psy-rdoq=1.00 / no-rd-refine / no-lossless / cbqpoffs=0 / crqpoffs=0 / rc=crf / crf=17.0 / qcomp=0.60 / qpstep=4 / stats-write=0 / stats-read=0 / vbv-maxrate=160000 / vbv-bufsize=160000 / vbv-init=0.9 / crf-max=0.0 / crf-min=0.0 / ipratio=1.40 / pbratio=1.30 / aq-mode=2 / aq-strength=1.00 / cutree / zone-count=0 / no-strict-cbr / qg-size=32 / no-rc-grain / qpmax=69 / qpmin=0 / no-const-vbv / sar=1 / overscan=0 / videoformat=5 / range=0 / colorprim=9 / transfer=16 / colormatrix=9 / chromaloc=1 / chromaloc-top=2 / chromaloc-bottom=2 / display-window=0 / master-display=G(13250,34500)B(7500,3000)R(34000,16000)WP(15635,16450)L(10000000,50) / cll=0,0 / min-luma=0 / max-luma=1023 / log2-max-poc-lsb=8 / vui-timing-info / vui-hrd-info / slices=1 / no-opt-qp-pps / no-opt-ref-list-length-pps / no-multi-pass-opt-rps / scenecut-bias=0.05 / hist-threshold=0.01 / no-opt-cu-delta-qp / no-aq-motion / hdr10 / hdr10-opt / no-dhdr10-opt / no-idr-recovery-sei / analysis-reuse-level=0 / analysis-save-reuse-level=0 / analysis-load-reuse-level=0 / scale-factor=0 / refine-intra=0 / refine-inter=0 / refine-mv=1 / refine-ctu-distortion=0 / no-limit-sao / ctu-info=0 / no-lowpass-dct / refine-analysis-type=0 / copy-pic=1 / max-ausize-factor=1.0 / no-dynamic-refine / no-single-sei / no-hevc-aq / no-svt / no-field / qp-adaptation-range=1.00 / no-scenecut-aware-qpconformance-window-offsets / right=0 / bottom=0
Default                                  : Yes
Forced                                  : No
Color range                              : Limited
Color primaries                          : BT.2020
Matrix coefficients                      : BT.2020 non-constant

Audio #1
ID                                      : 2
Format                                  : AC-3
Format/Info                              : Audio Coding 3
Mode extension                          : CM (complete main)
Format settings, Endianness              : Big
Codec ID                                : A_AC3
Duration                                : 1h 41mn
Bit rate mode                            : Constant
Bit rate                                : 384 Kbps
Channel(s)                              : 6 channels
Channel positions                        : Front: L C R, Side: L R, LFE
Sampling rate                            : 48.0 KHz
Frame rate                              : 31.250 fps (1536 spf)
Compression mode                        : Lossy
Stream size                              : 280 MiB (5%)
Title                                    : Türkçe
Language                                : Turkish
Default                                  : Yes
Forced                                  : No

Audio #2
ID                                      : 3
Format                                  : AC-3
Format/Info                              : Audio Coding 3
Mode extension                          : CM (complete main)
Format settings, Endianness              : Big
Codec ID                                : A_AC3
Duration                                : 1h 41mn
Bit rate mode                            : Constant
Bit rate                                : 640 Kbps
Channel(s)                              : 6 channels
Channel positions                        : Front: L C R, Side: L R, LFE
Sampling rate                            : 48.0 KHz
Frame rate                              : 31.250 fps (1536 spf)
Compression mode                        : Lossy
Stream size                              : 466 MiB (8%)
Title                                    : İngilizce
Language                                : English
Default                                  : No
Forced                                  : No

Text #1
ID                                      : 4
Format                                  : UTF-8
Codec ID                                : S_TEXT/UTF8
Codec ID/Info                            : UTF-8 Plain Text
Duration                                : 1h 40mn
Bit rate                                : 0 bps
Count of elements                        : 33
Stream size                              : 698 Bytes (0%)
Title                                    : KISIM
Language                                : Turkish
Default                                  : Yes
Forced                                  : Yes

Text #2
ID                                      : 5
Format                                  : UTF-8
Codec ID                                : S_TEXT/UTF8
Codec ID/Info                            : UTF-8 Plain Text
Duration                                : 1h 40mn
Bit rate                                : 53 bps
Count of elements                        : 1450
Stream size                              : 39.3 KiB (0%)
Title                                    : Türkçe Altyazı
Language                                : Turkish
Default                                  : No
Forced                                  : No

Film Detayları


 Ajanlar İş Başında

 Ajanlar İş Başında

 Ajanlar İş Başında


Film Fragmanı


Film Detayları

Uptobox ile indir

1Fichier ile indir

1Fichier'den İndiremiyor musun? Tıklayın!


Mega ile indir

Bunun için üzgünüz ancak, bu linke sadece premium üyeler erişebilir.

Filmbol Cloud



Konu ile Alakalı Benzer Konular
Konular Yazar Yorumlar Okunma Son Yorum
Filmin Yayınlanma Tarihi: 2019
Queen & Slim (Queen ve Slim) - 2019 - TR+ORG - UHD (4K) - 10Bit-x265 BroserBros 0 49 02-06-2020, Saat: 22:55
Son Yorum: BroserBros
Filmin Yayınlanma Tarihi: 2019
Jumanji: Yeni Seviye (Jumanji: The Next Level) - 2019 - TR+ENG - UHD (4K) BroserBros 0 116 19-04-2020, Saat: 12:58
Son Yorum: BroserBros
Filmin Yayınlanma Tarihi: 2019
Korku Hikâyeleri (Scary Stories to Tell in the Dark) - 2019 - TR+ENG - UHD (4K) BroserBros 0 93 15-04-2020, Saat: 18:09
Son Yorum: BroserBros
Filmin Yayınlanma Tarihi: 2019
Star Wars: Skywalker'ın Yükselişi (The Rise of Skywalker) - 2019 - TR+ENG - UHD (4K) BroserBros 0 179 13-04-2020, Saat: 17:21
Son Yorum: BroserBros
Filmin Yayınlanma Tarihi: 2019
Anna (2019) Türkçe Dublaj BLURAY DUAL 4K indir BroserBros 1 156 04-03-2020, Saat: 00:35
Son Yorum: steelhand

Hızlı Menü: