Filmbol Forum Film İndir 720P v Ajanlar İş Başında (Spies in Disguise) - 2019 - TR - 720P
Moderatör Alımları Başladı! Başvuru yapmak için tıklayın.
Filmbol Premium'da %50'e varan indirim fırsatı!
Ajanlar İş Başında (Spies in Disguise) - 2019 - TR - 720P
BroserBros
Ajanlar İş Başında (Spies in Disguise) - 2019 - TR - 720P
0
136
  • Derecelendirme: 0/5 - 0 oy
  • 1
  • 2
  • 3
  • 4
  • 5
Konuyu Okuyanlar:1 Ziyaretçi
Şuan Online!
Filmin Yayınlanma Tarihi: 2020 
Şuan Online!
BroserBros Kurucu Admin
*******
Admin

Vizyon Tarihi


10 Ocak 2020

imdb puanı


6,8 / 21,000

süre


102 dakika

Editör Puanı


6,9 / 10

Video Format: Mkv


Matroska (.MKV)

Ses Kodek: AC3


Audio Coding 3 (AC3)

sürüm


x264 | 720P | BLURAY

Boyutlar


1,09 GB



 Ajanlar İş Başında



Lance Sterling, uluslararası casusluluğun yüksek oktanlı dünyasının en önde gelen ismidir. Dünyanın en harika casusu olan Lance havalı, sevimli ve süper yetenekli olmanın yanı sıra dünyayı kurtarmanın günlük işlerinden biri olduğunun farkındadır, bu işte ondan iyisi de yoktur. Genç Walter ise Lance'in neredeyse tam tersidir. Zekasıyla göz kamaştıran Walter'ın sosyal becerileri ne yazık ki o kadar da gelişmiş değildir. Ancak Walter da sosyalleşmek konusundaki eksikliğini kapatmak için zekasını kullanmakta ve buluşlar yapmaktadır. Walter, Lance'in tehlikeli görevlerinde kullandığı araçları icat eden bilimsel dehadır. Fakat olaylar beklenmedik bir dönüş yaptığında, Walter ve Lance aniden yeni bir şekilde birbirlerine güvenmek zorunda kalırlar. Eğer bu birbiriyle alakası olmayan ikili bir takım olarak çalışmayı öğrenemezse, tüm dünya tehlike altında olacaktır...

Ajanlar İş Başında (2019) (Spies in Disguise) Filmi Imdb'den 21,000 kişi tarafından oylandı ve 6,8 puan aldı. Bu film için editör puanı 6,9 olarak belirlendi. İyi Seyirler!

Teknik Detaylar

Kod :
General
Unique ID                                : 269933912858153344924231509308799625671 (0xCB13616D8DDAE092E06836BD7E22A9C7)
Complete name                            : /root/Desktop/7/Ajanlar.İş.Başında.2019.720p.BluRay.x264.TR.Filmbol.mkv
Format                                  : Matroska
Format version                          : Version 4 / Version 2
File size                                : 1.09 GiB
Duration                                : 1h 41mn
Overall bit rate                        : 1 535 Kbps
Movie name                              : Ajanlar İş Başında (2019) - Filmbol.org
Encoded date                            : UTC 2020-04-19 13:58:09
Writing application                      : mkvmerge v8.8.0 ('Wind at my back') 64bit
Writing library                          : libebml v1.3.3 + libmatroska v1.4.4

Video
ID                                      : 1
Format                                  : AVC
Format/Info                              : Advanced Video Codec
Format profile                          : High@L4.1
Format settings, CABAC                  : Yes
Format settings, ReFrames                : 4 frames
Codec ID                                : V_MPEG4/ISO/AVC
Duration                                : 1h 41mn
Bit rate                                : 1 150 Kbps
Width                                    : 1 280 pixels
Height                                  : 534 pixels
Display aspect ratio                    : 2.40:1
Original display aspect ratio            : 2.40:1
Frame rate mode                          : Constant
Frame rate                              : 23.976 (24000/1001) fps
Color space                              : YUV
Chroma subsampling                      : 4:2:0
Bit depth                                : 8 bits
Scan type                                : Progressive
Bits/(Pixel*Frame)                      : 0.070
Stream size                              : 838 MiB (75%)
Title                                    : 720P - Filmbol.org
Writing library                          : x264 core 158
Encoding settings                        : cabac=1 / ref=4 / deblock=1:-1:-1 / analyse=0x3:0x133 / me=umh / subme=9 / psy=1 / psy_rd=1.00:0.15 / mixed_ref=1 / me_range=24 / chroma_me=1 / trellis=2 / 8x8dct=1 / cqm=0 / deadzone=21,11 / fast_pskip=0 / chroma_qp_offset=-3 / threads=17 / lookahead_threads=1 / sliced_threads=0 / nr=0 / decimate=1 / interlaced=0 / bluray_compat=0 / constrained_intra=0 / bframes=3 / b_pyramid=2 / b_adapt=2 / b_bias=0 / direct=3 / weightb=1 / open_gop=0 / weightp=2 / keyint=250 / keyint_min=23 / scenecut=40 / intra_refresh=0 / rc_lookahead=60 / rc=2pass / mbtree=1 / bitrate=1150 / ratetol=1.0 / qcomp=0.60 / qpmin=0 / qpmax=69 / qpstep=4 / cplxblur=20.0 / qblur=0.5 / vbv_maxrate=31250 / vbv_bufsize=31250 / nal_hrd=none / filler=0 / ip_ratio=1.40 / aq=1:1.00
Default                                  : Yes
Forced                                  : No

Audio
ID                                      : 2
Format                                  : AC-3
Format/Info                              : Audio Coding 3
Mode extension                          : CM (complete main)
Format settings, Endianness              : Big
Codec ID                                : A_AC3
Duration                                : 1h 41mn
Bit rate mode                            : Constant
Bit rate                                : 384 Kbps
Channel(s)                              : 6 channels
Channel positions                        : Front: L C R, Side: L R, LFE
Sampling rate                            : 48.0 KHz
Frame rate                              : 31.250 fps (1536 spf)
Compression mode                        : Lossy
Stream size                              : 280 MiB (25%)
Title                                    : Türkçe
Language                                : Turkish
Default                                  : Yes
Forced                                  : No

Text
ID                                      : 3
Format                                  : UTF-8
Codec ID                                : S_TEXT/UTF8
Codec ID/Info                            : UTF-8 Plain Text
Duration                                : 1h 40mn
Bit rate                                : 0 bps
Count of elements                        : 33
Stream size                              : 698 Bytes (0%)
Title                                    : KISIM
Language                                : Turkish
Default                                  : Yes
Forced                                  : Yes

Film Detayları


 Ajanlar İş Başında

 Ajanlar İş Başında

 Ajanlar İş Başında


Film Fragmanı


Film Detayları

Uptobox ile indir

1Fichier ile indir

1Fichier'den İndiremiyor musun? Tıklayın!


Mega ile indir

Bunun için üzgünüz ancak, bu linke sadece premium üyeler erişebilir.

Filmbol Cloud



Konu ile Alakalı Benzer Konular
Konular Yazar Yorumlar Okunma Son Yorum
Filmin Yayınlanma Tarihi: 2018
Seviye 16 (Level 16) - 2018 - TR+ORG - 720P BroserBros 0 84 04-07-2020, Saat: 21:27
Son Yorum: BroserBros
Filmin Yayınlanma Tarihi: 2018
Küçük Orman (Little Woods) - 2018 - TR+ORG - 720P BroserBros 0 86 04-07-2020, Saat: 19:59
Son Yorum: BroserBros
Filmin Yayınlanma Tarihi: 2018
Suda Ölüm (Dead in the Water) - 2018 - TR+ORG - 720P BroserBros 0 81 04-07-2020, Saat: 19:40
Son Yorum: BroserBros
Filmin Yayınlanma Tarihi: 2019
Aşkı Beklerken (Deux moi - Someone, Somewhere) - 2019 - TR+ORG - 720P BroserBros 0 106 03-07-2020, Saat: 14:18
Son Yorum: BroserBros
Filmin Yayınlanma Tarihi: 2019
Hellboy (Hellboy) - 2019 - TR+ORG - 720P BroserBros 0 70 03-07-2020, Saat: 12:39
Son Yorum: BroserBros

Hızlı Menü: