Filmbol Forum Film İndir 720P v Aile (Family) Türkçe Dublaj BLURAY 720P indir
Mega linklerinin şikayet edilmemesi için global erişime kapatıp sadece yorum yapanlara açıyoruz. Bu linkleri gizleme işlemini mecburen yapıyoruz ve yorum yapmanızın siteye değil size faydası vardır. Teşekürler yazmayı çok görüp, Random/Spam mesajlar atarak Mega linklerini açmaya çalışan kullanıcılara önce süresiz ban, devam ederse IP ban atacağız.
Filmbol'da moderatör olmak ister misiniz? Bizimle iletişime geçmek için tıklayın!
Aile (Family) Türkçe Dublaj BLURAY 720P indir
BroserBros
Aile (Family) Türkçe Dublaj BLURAY 720P indir
0
205
  • Derecelendirme: 0/5 - 0 oy
  • 1
  • 2
  • 3
  • 4
  • 5
Konuyu Okuyanlar:1 Ziyaretçi
Şuan Online!
Filmin Yayınlanma Tarihi: 2019 
WWW
Şuan Online!
BroserBros Kurucu Admin
*******
Admin








 Aile



Hayatını kariyerine adamış olan Kate Stone, hayatını çevresindekileri tanımamazlıktan gelerek ve bencil bir şekilde idame ettirmektedir. Kate'in tavırları sadece çevresindekilere değil, aynı zamanda ailesi için de bu şekildedir. Yıllarca görüşmediği abisi kendisinden bir istekte bulunur, oğluna bir geceliğe bakmasını ister ve kate de bunu pek memnun olmamakla birlikte kabul eder. Ancak işler sanıldığı gibi gitmez ve 1 gece, 1 hafta olur. Bu duruma alışık olmayan Kate'in hayatıda neredeyse berbat olmak üzeredir. Sonra umulmadık bir şey olur ve çocukla sohbet etmeye başlar. Çocuk sorunlarını Kate teyzesine açtıkca aralarında mükemmel bir bağ oluşur.

Aile (2018) (Family) Filmi Imdb'den 1,500 kişi tarafından oylandı ve 6,3 puan aldı. Bu film için editör puanı 6,0 olarak belirlendi. İyi Seyirler!

Teknik Detaylar

Kod :
General
Unique ID                                : 227635020656820556984335265680159481464 (0xAB40E9074915EFBE0BE93F2C3B291E78)
Complete name                            : /root/Desktop/1/A.Second.Chance.Rivals!.2019.720p.WEB-DL.x264.TR.Filmbol.mkv
Format                                   : Matroska
Format version                           : Version 4 / Version 2
File size                                : 1.02 GiB
Duration                                 : 1h 29mn
Overall bit rate                         : 1 638 Kbps
Movie name                               : A Second Chance: Rivals!
Encoded date                             : UTC 2020-02-21 14:46:15
Writing application                      : mkvmerge v35.0.0 ('All The Love In The World') 64-bit
Writing library                          : libebml v1.3.9 + libmatroska v1.5.2

Video
ID                                       : 1
Format                                   : AVC
Format/Info                              : Advanced Video Codec
Format profile                           : [email protected]
Format settings, CABAC                   : Yes
Format settings, ReFrames                : 2 frames
Format settings, GOP                     : M=1, N=25
Codec ID                                 : V_MPEG4/ISO/AVC
Duration                                 : 1h 29mn
Bit rate                                 : 1 252 Kbps
Width                                    : 1 280 pixels
Height                                   : 716 pixels
Display aspect ratio                     : 16:9
Frame rate mode                          : Constant
Frame rate                               : 25.000 fps
Color space                              : YUV
Chroma subsampling                       : 4:2:0
Bit depth                                : 8 bits
Scan type                                : Progressive
Bits/(Pixel*Frame)                       : 0.055
Stream size                              : 798 MiB (76%)
Title                                    : 720P - Filmbol.org
Language                                 : English
Default                                  : Yes
Forced                                   : No

Audio
ID                                       : 2
Format                                   : AC-3
Format/Info                              : Audio Coding 3
Mode extension                           : CM (complete main)
Format settings, Endianness              : Big
Codec ID                                 : A_AC3
Duration                                 : 1h 29mn
Bit rate mode                            : Constant
Bit rate                                 : 384 Kbps
Channel(s)                               : 6 channels
Channel positions                        : Front: L C R, Side: L R, LFE
Sampling rate                            : 48.0 KHz
Frame rate                               : 31.250 fps (1536 spf)
Compression mode                         : Lossy
Stream size                              : 245 MiB (23%)
Title                                    : Türkçe - Filmbol.org
Language                                 : Turkish
Default                                  : Yes
Forced                                   : No

Film Detayları


 Aile

 Aile

 Aile


Film Fragmanı


Film Detayları

Uptobox ile indir

1Fichier ile indir

1Fichier'den İndiremiyor musun? Tıklayın!


Mega linki şuan da gizli. Kullanıma açmak için konuya yorum yapın ve ardından sayfayı yenileyin.

Mega


MediaFire ile indir



Konu ile Alakalı Benzer Konular
Konular Yazar Yorumlar Okunma Son Yorum
Filmin Yayınlanma Tarihi: 2020
Her Zaman Şeytan (The Devil All the Time) - 2020 - TR+ORG - 720P | tt7395114 TheSteeL 0 20 9 saat önce
Son Yorum: TheSteeL
Filmin Yayınlanma Tarihi: 2020
Baba Aranıyor (Se busca papá) - 2020 - TR+ORG - 720P | tt12721188 TheSteeL 0 19 9 saat önce
Son Yorum: TheSteeL
Filmin Yayınlanma Tarihi: 2019
Beyaz Kentin Sessizliği (El silencio de la ciudad blanca) - 2019 - TR+ORG - 720P | tt8393332 BroserBros 1 250 , Saat: 15:38
Son Yorum: BroserBros
Filmin Yayınlanma Tarihi: 2019
Frankenstein: Ölümsüzlerin Savaşı (I, Frankenstein) - 2014 - TR+ORG - 720P | tt1418377 BroserBros 2 262 , Saat: 15:29
Son Yorum: BroserBros
Filmin Yayınlanma Tarihi: 2002
Akıl Oyunları (A Beautiful Mind) - 2001 - TR+ORG - 720P | tt0268978 BroserBros 1 245 , Saat: 15:12
Son Yorum: BroserBros

Hızlı Menü: