Filmbol Forum Film İndir BRRip XviD v Addams Ailesi (The Addams Family) Türkçe Dublaj BRRip XviD indir
Addams Ailesi (The Addams Family) Türkçe Dublaj BRRip XviD indir
BroserBros
Addams Ailesi (The Addams Family) Türkçe Dublaj BRRip XviD indir
0
143
  • Derecelendirme: 0/5 - 0 oy
  • 1
  • 2
  • 3
  • 4
  • 5
Konuyu Okuyanlar:1 Ziyaretçi
Şuan Online!
Filmin Yayınlanma Tarihi: 2019 
Şuan Online!
BroserBros Kurucu Admin
*******
Admin

Vizyon Tarihi


06 Aralık 2019

imdb puanı


6,0 / 16,000

süre


86 dakika

Editör Puanı


6,0 / 10

Video Format: Avi


Audio Video Interleave (.AVI)

Ses Kodek: MP3


MPEG-1 Audio Layer III (MP3)

sürüm


h263 | BRRip XviD

Boyutlar


1,06 GB



 Addams Ailesi



Morticia ailesine kendisini adamıştır ve kendi hayatından çok ailesi ile ilginen bir kadındır. Güler yüzlü ama kötü babası her zaman farklı dallarda girişimci haliyle bilinir. Aile'de örgülü saç modeli ve baya mizahı yapısı ile Wednesday ve her şeyin altından çıkan ve başı beladan çıkmayan Pugsley. Aile bu şekilde bir çok bireye sahiptir ve kutlamalar için hazırlık yapmaktadırlar. Bu sırada Margaux Needler karşılarına çıkar. Addams Ailesinin tam farklı bir sürümü gibidir ve yaptıkları herşeyde birbirlerine ters düşerler. Bu karşılaşmanın sonu ne olacaktır?...

Addams Ailesi (2019) (The Addams Family) Filmi Imdb'den 16,000 kişi tarafından oylandı ve 6,0 puan aldı. Bu film için editör puanı 6,0 olarak belirlendi. İyi Seyirler!

Teknik Detaylar

Kod :
General
Complete name                            : /root/Desktop/5/Addams.Ailesi.2019.BRRip.XviD.TR.Filmbol.avi
Format                                   : AVI
Format/Info                              : Audio Video Interleave
File size                                : 1.06 GiB
Duration                                 : 1h 27mn
Overall bit rate                         : 1 737 Kbps

Video
ID                                       : 0
Format                                   : MPEG-4 Visual
Format profile                           : Simple@L5
Format settings, BVOP                    : No
Format settings, QPel                    : No
Format settings, GMC                     : No warppoints
Format settings, Matrix                  : Default (H.263)
Codec ID                                 : XVID
Codec ID/Hint                            : XviD
Duration                                 : 1h 27mn
Bit rate                                 : 1 596 Kbps
Width                                    : 720 pixels
Height                                   : 392 pixels
Display aspect ratio                     : 1.85:1
Frame rate                               : 23.976 fps
Color space                              : YUV
Chroma subsampling                       : 4:2:0
Bit depth                                : 8 bits
Scan type                                : Progressive
Compression mode                         : Lossy
Bits/(Pixel*Frame)                       : 0.236
Stream size                              : 994 MiB (92%)
Writing library                          : Lavc58.35.100

Audio
ID                                       : 1
Format                                   : MPEG Audio
Format version                           : Version 1
Format profile                           : Layer 3
Mode                                     : Joint stereo
Mode extension                           : MS Stereo
Codec ID                                 : 55
Codec ID/Hint                            : MP3
Duration                                 : 1h 27mn
Bit rate mode                            : Constant
Bit rate                                 : 128 Kbps
Channel(s)                               : 2 channels
Sampling rate                            : 48.0 KHz
Compression mode                         : Lossy
Stream size                              : 79.7 MiB (7%)
Alignment                                : Aligned on interleaves
Interleave, duration                     : 24 ms (0.58 video frame)

Film Detayları


 Addams Ailesi

 Addams Ailesi

 Addams Ailesi


Film Fragmanı


Film Detayları


Uptobox ile indir

1Fichier ile indir

1Fichier'den İndiremiyor musun? Tıklayın!


Mega ile indir

MediaFire ile indir



Konu ile Alakalı Benzer Konular
Konular Yazar Yorumlar Okunma Son Yorum
Filmin Yayınlanma Tarihi: 2014
300: Bir İmparatorluğun Yükselişi (300: Rise of an Empire - 300 Spartalı 2) - 2014 - TR - BRRip XviD BroserBros 0 16 6 saat önce
Son Yorum: BroserBros
Filmin Yayınlanma Tarihi: 2020
Kirpi Sonic (Sonic the Hedgehog) - 2020 - TR - BRRip XviD BroserBros 0 19 7 saat önce
Son Yorum: BroserBros
Filmin Yayınlanma Tarihi: 2019
Küçük (Little) - 2019 - TR - BRRip XviD BroserBros 0 14 7 saat önce
Son Yorum: BroserBros
Filmin Yayınlanma Tarihi: 2019
Blue Story (Mavi Öykü) - 2019 - TR - BRRip XviD BroserBros 0 24 , Saat: 22:26
Son Yorum: BroserBros
Filmin Yayınlanma Tarihi: 2014
Transformers: Kayıp Çağ (Transformers: Age of Extinction) - 2014 - TR - BRRip XviD BroserBros 0 45 02-06-2020, Saat: 23:15
Son Yorum: BroserBros

Hızlı Menü: