Filmbol Forum Film İndir 1080P v Addams Ailesi (The Addams Family) Türkçe Dublaj BLURAY 1080P indir
Addams Ailesi (The Addams Family) Türkçe Dublaj BLURAY 1080P indir
BroserBros
Addams Ailesi (The Addams Family) Türkçe Dublaj BLURAY 1080P indir
6
212
  • Derecelendirme: 0/5 - 0 oy
  • 1
  • 2
  • 3
  • 4
  • 5
Konuyu Okuyanlar:1 Ziyaretçi
Şuan Online!
Filmin Yayınlanma Tarihi: 2019 
Şuan Online!
BroserBros Kurucu Admin
*******
Admin

Vizyon Tarihi


06 Aralık 2019

imdb puanı


6,0 / 16,000

süre


86 dakika

Editör Puanı


6,0 / 10

Video Format: Mkv


Matroska (.MKV)

Ses Kodek: AC3


Audio Coding 3 (AC3)

sürüm


x264 | 1080P | BLURAY

Boyutlar


1,63 GB



 Addams Ailesi



Morticia ailesine kendisini adamıştır ve kendi hayatından çok ailesi ile ilginen bir kadındır. Güler yüzlü ama kötü babası her zaman farklı dallarda girişimci haliyle bilinir. Aile'de örgülü saç modeli ve baya mizahı yapısı ile Wednesday ve her şeyin altından çıkan ve başı beladan çıkmayan Pugsley. Aile bu şekilde bir çok bireye sahiptir ve kutlamalar için hazırlık yapmaktadırlar. Bu sırada Margaux Needler karşılarına çıkar. Addams Ailesinin tam farklı bir sürümü gibidir ve yaptıkları herşeyde birbirlerine ters düşerler. Bu karşılaşmanın sonu ne olacaktır?...

Addams Ailesi (2019) (The Addams Family) Filmi Imdb'den 16,000 kişi tarafından oylandı ve 6,0 puan aldı. Bu film için editör puanı 6,0 olarak belirlendi. İyi Seyirler!

Teknik Detaylar

Kod :
General
Unique ID                                : 213796466175228308106154121848106740583 (0xA0D7B39D70D203836385F28ABC6F6B67)
Complete name                            : /root/Desktop/5/Addams.Ailesi.2019.1080p.BluRay.x264.TR.Filmbol.mkv
Format                                   : Matroska
Format version                           : Version 4 / Version 2
File size                                : 1.63 GiB
Duration                                 : 1h 27mn
Overall bit rate                         : 2 685 Kbps
Movie name                               : Addams Ailesi (2019) - Filmbol.org
Encoded date                             : UTC 2020-02-21 15:01:54
Writing application                      : mkvmerge v35.0.0 ('All The Love In The World') 64-bit
Writing library                          : libebml v1.3.9 + libmatroska v1.5.2

Video
ID                                       : 1
Format                                   : AVC
Format/Info                              : Advanced Video Codec
Format profile                           : High@L4.1
Format settings, CABAC                   : Yes
Format settings, ReFrames                : 4 frames
Codec ID                                 : V_MPEG4/ISO/AVC
Duration                                 : 1h 27mn
Bit rate                                 : 2 300 Kbps
Width                                    : 1 920 pixels
Height                                   : 1 024 pixels
Display aspect ratio                     : 1.85:1
Frame rate mode                          : Constant
Frame rate                               : 23.976 (24000/1001) fps
Color space                              : YUV
Chroma subsampling                       : 4:2:0
Bit depth                                : 8 bits
Scan type                                : Progressive
Bits/(Pixel*Frame)                       : 0.049
Stream size                              : 1.40 GiB (86%)
Title                                    : 1080P - Filmbol.org
Writing library                          : x264 core 158
Encoding settings                        : cabac=1 / ref=4 / deblock=1:-1:-1 / analyse=0x3:0x133 / me=umh / subme=9 / psy=1 / psy_rd=1.00:0.15 / mixed_ref=1 / me_range=24 / chroma_me=1 / trellis=2 / 8x8dct=1 / cqm=0 / deadzone=21,11 / fast_pskip=0 / chroma_qp_offset=-3 / threads=12 / lookahead_threads=1 / sliced_threads=0 / nr=0 / decimate=1 / interlaced=0 / bluray_compat=0 / constrained_intra=0 / bframes=3 / b_pyramid=2 / b_adapt=2 / b_bias=0 / direct=3 / weightb=1 / open_gop=0 / weightp=2 / keyint=250 / keyint_min=23 / scenecut=40 / intra_refresh=0 / rc_lookahead=60 / rc=2pass / mbtree=1 / bitrate=2300 / ratetol=1.0 / qcomp=0.60 / qpmin=0 / qpmax=69 / qpstep=4 / cplxblur=20.0 / qblur=0.5 / vbv_maxrate=31250 / vbv_bufsize=31250 / nal_hrd=none / filler=0 / ip_ratio=1.40 / aq=1:1.00
Default                                  : Yes
Forced                                   : No

Audio
ID                                       : 2
Format                                   : AC-3
Format/Info                              : Audio Coding 3
Mode extension                           : CM (complete main)
Format settings, Endianness              : Big
Codec ID                                 : A_AC3
Duration                                 : 1h 27mn
Bit rate mode                            : Constant
Bit rate                                 : 384 Kbps
Channel(s)                               : 6 channels
Channel positions                        : Front: L C R, Side: L R, LFE
Sampling rate                            : 48.0 KHz
Frame rate                               : 31.250 fps (1536 spf)
Compression mode                         : Lossy
Stream size                              : 239 MiB (14%)
Title                                    : Türkçe - Filmbol.org
Language                                 : Turkish
Default                                  : Yes
Forced                                   : No

Text
ID                                       : 3
Format                                   : UTF-8
Codec ID                                 : S_TEXT/UTF8
Codec ID/Info                            : UTF-8 Plain Text
Duration                                 : 1h 16mn
Bit rate                                 : 0 bps
Count of elements                        : 18
Stream size                              : 308 Bytes (0%)
Title                                    : KISIM
Language                                 : Turkish
Default                                  : Yes
Forced                                   : Yes

Film Detayları


 Addams Ailesi

 Addams Ailesi

 Addams Ailesi


Film Fragmanı


Film Detayları

Uptobox ile indir

1Fichier ile indir

1Fichier'den İndiremiyor musun? Tıklayın!


Mega ile indir

MediaFire ile indir

Şuan Online!
Şuan Online!
caner Süper Üye
***
Super Üye

  • Konular0
  • Mesajlar52
  • Rep puanı 0
teşekkürler
Şuan Offine!
Şuan Offine!
Hellenger28 Uzman Üye
**
Uzman Üye

  • Konular0
  • Mesajlar15
  • Rep puanı 0
Güzell Wink
Şuan Offine!
Şuan Offine!
kimsinsen Uzman Üye
**
Uzman Üye

  • Konular0
  • Mesajlar13
  • Rep puanı 0
Teşekkürler harika Smile
Şuan Online!
Şuan Online!
ahmetyee1 Süper Üye
***
Super Üye

  • Konular1
  • Mesajlar51
  • Rep puanı 0
evet bu işte
Şuan Offine!
Şuan Offine!
kimsinsen Uzman Üye
**
Uzman Üye

  • Konular0
  • Mesajlar13
  • Rep puanı 0
Selam film "M10.addmsfml .b1" şeklinde iniyor uzantısı sorunlu? nasıl çözeriz?
Şuan Offine!
Şuan Offine!
dijital26 Yeni Üye
*
Üye

  • Konular0
  • Mesajlar3
  • Rep puanı 0
Çok teşekkür ederim..


Konu ile Alakalı Benzer Konular
Konular Yazar Yorumlar Okunma Son Yorum
Filmin Yayınlanma Tarihi: 2014
300: Bir İmparatorluğun Yükselişi (300: Rise of an Empire - 300 Spartalı 2) - 2014 - TR+ORG - 1080P BroserBros 0 14 8 saat önce
Son Yorum: BroserBros
Filmin Yayınlanma Tarihi: 2020
Kirpi Sonic (Sonic the Hedgehog) - 2020 - TR+ORG - 1080P BroserBros 0 19 9 saat önce
Son Yorum: BroserBros
Filmin Yayınlanma Tarihi: 2019
Küçük (Little) - 2019 - TR+ORG - 1080P BroserBros 0 13 9 saat önce
Son Yorum: BroserBros
Filmin Yayınlanma Tarihi: 2019
Blue Story (Mavi Öykü) - 2019 - TR+ORG - 1080P BroserBros 0 31 , Saat: 22:26
Son Yorum: BroserBros
Filmin Yayınlanma Tarihi: 2014
Transformers: Kayıp Çağ (Transformers: Age of Extinction) - 2014 - TR+ORG - 1080P BroserBros 0 46 02-06-2020, Saat: 23:16
Son Yorum: BroserBros

Hızlı Menü: