Hoşgeldin, Ziyaretçi: Giriş Yap Üye Ol


stats
Adblock'u kapattıysanız tıklayın.
Hoşgeldiniz!
Filmbol'u tercih ettiğiniz için teşekkürler, ancak ablock kullanarak devam edemezsiniz.
Merak etmeyin. Heryerden ardı ardına çıkan reklamlar görmeyeceksiniz :)

Sadece site içi 1 reklam göreceksin ve bu site gezintini etkilemeyecek.
Konuyu Oyla:
  • Derecelendirme: 0/5 - 0 oy
  • 1
  • 2
  • 3
  • 4
  • 5
5 Kat Yukarı (5 Flights Up) Türkçe Dublaj m720P İndir
#1
Filmin Yayınlanma Tarihi: 2014 

indirme türü


Bulut + Premium

vizyon tarihi


08 Mayıs 2015

Boyutlar


0,76GB

diller


[TR]

altyazilar


Yok [Eklenebilir]

Video Format: Mkv


Matroska (.MKV)

Video Detay


MPEG-4, 949 Kbps, 0,61 GB

imdb puanı


6,2 / 10,0 / 6,000

süre


88 dakika

Ses Kodek: AC3


Audio Coding 3 (AC3)

Ses Detay


192 Kbps, 2 Kanal, 127 Mb

rarsifresi


filmbol.org

Editör Puanı


5,8

Genislik Yukseklik


1280x536

sürüm


x264 | m720P



Film Detayları

Uzun süredir evli olan bir çiftin, ev değiştirme çabasını konu ediyor. Brooklyn'de bir apartman dairesinde oturan çift zamanında bölgeye uygun fiyatlarından dolayı taşınmıştır. Fakat zaman geçtikçe oturdukları bölgenin değeri artmıştır. Çift yaşlarının ilerlemesinden dolayı evlerini satıp asansörlü bir apartmana taşınmaya karar verir. Fakat bunun için ömürlerini geçirdikleri evi satmaları gerekmektedir.

Teknik Detaylar

Kod:
General
Format                                   : Matroska
Format version                           : Version 4 / Version 2
File size                                : 754 MiB
Duration                                 : 1h 32mn
Overall bit rate                         : 1 142 Kbps
Movie name                               : 5 Flights Up - Filmbol.org

Video
ID                                       : 1
Format                                   : AVC
Format/Info                              : Advanced Video Codec
Format profile                           : High@L4.1
Format settings, CABAC                   : Yes
Format settings, ReFrames                : 5 frames
Codec ID                                 : V_MPEG4/ISO/AVC
Duration                                 : 1h 32mn
Bit rate                                 : 949 Kbps
Width                                    : 1 280 pixels
Height                                   : 536 pixels
Display aspect ratio                     : 2.40:1
Frame rate mode                          : Constant
Frame rate                               : 23.976 fps
Color space                              : YUV
Chroma subsampling                       : 4:2:0
Bit depth                                : 8 bits
Scan type                                : Progressive
Bits/(Pixel*Frame)                       : 0.058
Stream size                              : 612 MiB (81%)
Title                                    : m720P - Filmbol.org
Writing library                          : x264 core 146 r2538 121396c
Default                                  : Yes
Forced                                   : No
Color primaries                          : BT.709
Matrix coefficients                      : BT.709

Audio
ID                                       : 2
Format                                   : AC-3
Format/Info                              : Audio Coding 3
Mode extension                           : CM (complete main)
Format settings, Endianness              : Big
Codec ID                                 : A_AC3
Duration                                 : 1h 32mn
Bit rate mode                            : Constant
Bit rate                                 : 192 Kbps
Channel(s)                               : 2 channels
Channel positions                        : Front: L R
Sampling rate                            : 48.0 KHz
Bit depth                                : 16 bits
Compression mode                         : Lossy
Stream size                              : 127 MiB (17%)
Title                                    : Türkçe - Filmbol.org
Language                                 : Turkish
Default                                  : Yes
Forced                                   : No



Film Detayları


5 Flights Up

5 Flights Up

5 Flights Up

5 Flights Up

5 Flights Up


Film Fragmanı


Film Detayları

Mini 720P İndir


Turbobit İle İndir

Mega ile indir

Uptobox ile indir

Cloud Ru ile indir

 
Cevapla
  


Hızlı Menü:


Şu anda bu konuyu okuyanlar: 1 Ziyaretçi