Filmbol Forum Film İndir UHD - ULTRA HD - 4K v 47 Ronin (47 Ronin) - 2013 - TR+ORG - UHD (4K) - 10Bit-x265
Moderatör Alımları Başladı! Başvuru yapmak için tıklayın.
Filmbol Premium'da %50'e varan indirim fırsatı!
47 Ronin (47 Ronin) - 2013 - TR+ORG - UHD (4K) - 10Bit-x265
BroserBros
47 Ronin (47 Ronin) - 2013 - TR+ORG - UHD (4K) - 10Bit-x265
0
155
  • Derecelendirme: 0/5 - 0 oy
  • 1
  • 2
  • 3
  • 4
  • 5
Konuyu Okuyanlar:1 Ziyaretçi
Şuan Offine!
Filmin Yayınlanma Tarihi: 2013 
Şuan Offine!
BroserBros Kurucu Admin
*******
Admin

Vizyon Tarihi


27 Aralık 2013

imdb puanı


6,3 / 150,000

süre


128 dakika

Editör Puanı


7,0 / 10

Video Format: Mkv


Matroska (.MKV)

Ses Kodek: AC3


Audio Coding 3 (AC3)

sürüm


x265 | 4K | x265 0Bit

Boyutlar


11,2 GB



 47 Ronin



"Ronin" Japon kültüründe efendisiz kalmış samuray savaşçılarına verilen isimdir. Lord Asano'nın himayesinde huzurlu bir hayat süren Ako halkı ve onların koruyucu savaşçıları olan samurayların düzeni, İmparator Shogun Tsunayoshi'nin Lord Kira eşliğinde ülkeye gerçekleştirdiği ziyaret ile alt üst olacaktır. Zira Kira'nın Asano için hain planları vardır. Diğer yandan melez Kai, Lord Asano'nın kızı Mika'yı imkansız ve tutkulu bir aşk ile sevmektedir. Ama Kira'nın planlarında hem Ako'yu hem Mika ele geçirmek vardır...

47 Ronin (2013) (47 Ronin) Filmi Imdb'den 150,000 kişi tarafından oylandı ve 6,3 puan aldı. Bu film için editör puanı 7,0 olarak belirlendi. İyi Seyirler!

Teknik Detaylar

Kod :
General
Unique ID                                : 265094280359139018972818718709699595994 (0xC76F4D1F9180AAC03B98FE3F208C4EDA)
Complete name                            : /root/Desktop/4/47.Ronin.2013.4K.UHD.BluRay.x265.10Bit.HDR.TR.ENG.Filmbol.mkv.mkv
Format                                  : Matroska
Format version                          : Version 4 / Version 2
File size                                : 11.2 GiB
Duration                                : 1h 58mn
Overall bit rate                        : 13.5 Mbps
Movie name                              : 47 Ronin - 2013 | Filmbol.org
Encoded date                            : UTC 2020-06-06 15:30:52
Writing application                      : mkvmerge v8.8.0 ('Wind at my back') 64bit
Writing library                          : libebml v1.3.3 + libmatroska v1.4.4

Video
ID                                      : 1
Format                                  : HEVC
Format/Info                              : High Efficiency Video Coding
Format profile                          : Main 10@L5@Main
Codec ID                                : V_MPEGH/ISO/HEVC
Duration                                : 1h 58mn
Bit rate                                : 12.0 Mbps
Width                                    : 3 840 pixels
Height                                  : 1 600 pixels
Display aspect ratio                    : 2.40:1
Frame rate mode                          : Constant
Frame rate                              : 23.976 (24000/1001) fps
Color space                              : YUV
Chroma subsampling                      : 4:2:0
Bit depth                                : 10 bits
Bits/(Pixel*Frame)                      : 0.082
Stream size                              : 9.97 GiB (89%)
Title                                    : 4K - Filmbol.org
Writing library                          : x265 3.2+23-52135ffd9bcd:[Windows][GCC 9.2.0][64 bit] 10bit
Encoding settings                        : cpuid=1111039 / frame-threads=3 / numa-pools=8 / wpp / no-pmode / no-pme / no-psnr / no-ssim / log-level=2 / input-csp=1 / input-res=3840x1600 / interlace=0 / total-frames=170631 / level-idc=0 / high-tier=1 / uhd-bd=0 / ref=4 / no-allow-non-conformance / repeat-headers / annexb / no-aud / no-hrd / info / hash=0 / no-temporal-layers / open-gop / min-keyint=23 / keyint=250 / gop-lookahead=0 / bframes=8 / b-adapt=2 / b-pyramid / bframe-bias=0 / rc-lookahead=25 / lookahead-slices=4 / scenecut=40 / hist-scenecut=0 / radl=0 / no-splice / no-intra-refresh / ctu=64 / min-cu-size=8 / rect / no-amp / max-tu-size=32 / tu-inter-depth=1 / tu-intra-depth=1 / limit-tu=0 / rdoq-level=2 / dynamic-rd=0.00 / no-ssim-rd / signhide / no-tskip / nr-intra=0 / nr-inter=0 / no-constrained-intra / strong-intra-smoothing / max-merge=3 / limit-refs=3 / limit-modes / me=3 / subme=3 / merange=57 / temporal-mvp / no-frame-dup / no-hme / weightp / no-weightb / no-analyze-src-pics / deblock=0:0 / no-sao / no-sao-non-deblock / rd=4 / selective-sao=0 / no-early-skip / rskip / no-fast-intra / no-tskip-fast / no-cu-lossless / no-b-intra / no-splitrd-skip / rdpenalty=0 / psy-rd=2.00 / psy-rdoq=1.00 / no-rd-refine / no-lossless / cbqpoffs=0 / crqpoffs=0 / rc=crf / crf=16.0 / qcomp=0.60 / qpstep=4 / stats-write=0 / stats-read=0 / ipratio=1.40 / pbratio=1.30 / aq-mode=2 / aq-strength=1.00 / cutree / zone-count=0 / no-strict-cbr / qg-size=32 / no-rc-grain / qpmax=69 / qpmin=0 / no-const-vbv / sar=0 / overscan=0 / videoformat=5 / range=0 / colorprim=9 / transfer=16 / colormatrix=9 / chromaloc=0 / display-window=0 / master-display=G(13250,34500)B(7500,3000)R(34000,16000)WP(15635,16450)L(10000000,50) / cll=728,279 / min-luma=0 / max-luma=1023 / log2-max-poc-lsb=8 / vui-timing-info / vui-hrd-info / slices=1 / no-opt-qp-pps / no-opt-ref-list-length-pps / no-multi-pass-opt-rps / scenecut-bias=0.05 / hist-threshold=0.01 / no-opt-cu-delta-qp / aq-motion / hdr / hdr-opt / no-dhdr10-opt / no-idr-recovery-sei / analysis-reuse-level=5 / scale-factor=0 / refine-intra=0 / refine-inter=0 / refine-mv=1 / refine-ctu-distortion=0 / no-limit-sao / ctu-info=0 / no-lowpass-dct / refine-analysis-type=0 / copy-pic=1 / max-ausize-factor=1.0 / no-dynamic-refine / no-single-sei / no-hevc-aq / no-svt / no-field / qp-adaptation-range=1.00 / no-scenecut-aware-qp
Default                                  : Yes
Forced                                  : No
Color range                              : Limited
Color primaries                          : BT.2020
Matrix coefficients                      : BT.2020 non-constant

Audio #1
ID                                      : 2
Format                                  : AC-3
Format/Info                              : Audio Coding 3
Mode extension                          : CM (complete main)
Format settings, Endianness              : Big
Codec ID                                : A_AC3
Duration                                : 1h 58mn
Bit rate mode                            : Constant
Bit rate                                : 640 Kbps
Channel(s)                              : 6 channels
Channel positions                        : Front: L C R, Side: L R, LFE
Sampling rate                            : 48.0 KHz
Frame rate                              : 31.250 fps (1536 spf)
Compression mode                        : Lossy
Stream size                              : 543 MiB (5%)
Title                                    : Türkçe - Filmbol.org
Default                                  : Yes
Forced                                  : Yes

Audio #2
ID                                      : 3
Format                                  : AAC
Format/Info                              : Advanced Audio Codec
Format profile                          : LC
Codec ID                                : A_AAC
Duration                                : 1h 58mn
Bit rate                                : 789 Kbps
Channel(s)                              : 8 channels
Channel positions                        : Front: L C R, Side: 4, LFE
Sampling rate                            : 48.0 KHz
Frame rate                              : 46.875 fps (1024 spf)
Compression mode                        : Lossy
Delay relative to video                  : 20ms
Stream size                              : 670 MiB (6%)
Title                                    : İngilizce - Filmbol.org
Language                                : English
Default                                  : No
Forced                                  : No

Text
ID                                      : 4
Format                                  : UTF-8
Codec ID                                : S_TEXT/UTF8
Codec ID/Info                            : UTF-8 Plain Text
Duration                                : 1h 48mn
Bit rate                                : 24 bps
Count of elements                        : 663
Stream size                              : 19.8 KiB (0%)
Title                                    : Türkçe Altyazı
Default                                  : No
Forced                                  : No

Film Detayları


 47 Ronin

 47 Ronin

 47 Ronin


Film Fragmanı


Film Detayları

Uptobox ile indir

1Fichier ile indir

1Fichier'den İndiremiyor musun? Tıklayın!


Mega ile indir

Bunun için üzgünüz ancak, bu linke sadece premium üyeler erişebilir.

Filmbol Cloud



Konu ile Alakalı Benzer Konular
Konular Yazar Yorumlar Okunma Son Yorum
Filmin Yayınlanma Tarihi: 2020
Vahşetin Çağrısı (The Call of the Wild) - 2020 - TR+ORG - UHD (4K) - 10Bit-x265 BroserBros 0 227 05-08-2020, Saat: 20:47
Son Yorum: BroserBros
Filmin Yayınlanma Tarihi: 2018
Gölge Savaşçı (Shadow - Ying) - 2018 - TR+ORG - UHD (4K) - 10Bit-x265 BroserBros 0 106 26-07-2020, Saat: 12:57
Son Yorum: BroserBros
Filmin Yayınlanma Tarihi: 2020
Lanetli Çocuk 2 (Brahms: The Boy II) - 2020 - TR+ORG - UHD (4K) - 10Bit-x265 BroserBros 0 55 25-07-2020, Saat: 20:11
Son Yorum: BroserBros
Filmin Yayınlanma Tarihi: 2019
Hustlers (Hustlers) - 2019 - TR+ORG - UHD (4K) - 10Bit-x265 BroserBros 0 95 10-07-2020, Saat: 22:31
Son Yorum: BroserBros
Filmin Yayınlanma Tarihi: 2019
Hellboy (Hellboy) - 2019 - TR+ORG - UHD (4K) - 10Bit-x265 BroserBros 0 134 03-07-2020, Saat: 12:40
Son Yorum: BroserBros

Hızlı Menü: