Filmbol Forum Film İndir FHD - FULL HD v 300: Bir İmparatorluğun Yükselişi (300: Rise of an Empire - 300 Spartalı 2) - 2014 - TR+ORG - FHD - x265-10Bit
Moderatör Alımları Başladı! Başvuru yapmak için tıklayın.
Filmbol Premium'da %50'e varan indirim fırsatı!
300: Bir İmparatorluğun Yükselişi (300: Rise of an Empire - 300 Spartalı 2) - 2014 - TR+ORG - FHD - x265-10Bit
BroserBros
300: Bir İmparatorluğun Yükselişi (300: Rise of an Empire - 300 Spartalı 2) - 2014 - TR+ORG - FHD - x265-10Bit
0
124
  • Derecelendirme: 0/5 - 0 oy
  • 1
  • 2
  • 3
  • 4
  • 5
Konuyu Okuyanlar:1 Ziyaretçi
Şuan Offine!
Filmin Yayınlanma Tarihi: 2014 
Şuan Offine!
BroserBros Kurucu Admin
*******
Admin

Vizyon Tarihi


07 Mart 2014

imdb puanı


6,2 / 280,000

süre


102 dakika

Editör Puanı


7,0 / 10

Video Format: Mkv


Matroska (.MKV)

Ses Kodek: AC3


Audio Coding 3 (AC3)

sürüm


x265-10Bit|BluRay

Boyutlar


1,96 GB



 300: Bir İmparatorluğun Yükselişi



Kral Leonidas ve koruması Thermopylae'nin dar kanyonlarında büyük bir Pers ordusunu uzaklaştırmayı başarmış, aynı zamanda general Themistocles de Persleri püskürtmek için askerlerini bir araya toplamaya çalışmaktadır.Xerxes, Yunan başkenti Atina'yı ele geçirir. Kanlı bir savaşa giren Themistocles bu arada çok özel bir düşmanla karşı karşıyadır:  Artemisia. Artemisia, acımasız ve entrikacı bir PErs ordusu lideridir ve Yunanlılara olan öfkesi onu daha bile tehlikeli hale getirmektedir. Themistocles'in bu savaşı kazanmak için eski rakipleriyle bir araya gelmek zorundadır. O rakipler de Spartalı savaşçılardan başkaları değildir.

300: Bir İmparatorluğun Yükselişi (2014) (300: Rise of an Empire - 300 Spartalı 2) Filmi Imdb'den 280,000 kişi tarafından oylandı ve 6,2 puan aldı. Bu film için editör puanı 7,0 olarak belirlendi. İyi Seyirler!

Teknik Detaylar

Kod :
General
Unique ID                                : 241328205248092400610541292751980617409 (0xB58E1F27286FDC28E1F3B4006B945EC1)
Complete name                            : /root/Desktop/4/300.Bir.İmparatorluğun.Yükselişi.2014.FHD.BluRay.x265.10Bit.TR.ENG.Filmbol.mkv
Format                                  : Matroska
Format version                          : Version 4 / Version 2
File size                                : 4.37 GiB
Duration                                : 1h 42mn
Overall bit rate                        : 6 093 Kbps
Movie name                              : 300: Bir İmparatorluğun Yükselişi - 300 Rise of an Empire - 2014 | Filmbol.org
Encoded date                            : UTC 2020-06-03 11:19:03
Writing application                      : mkvmerge v8.8.0 ('Wind at my back') 64bit
Writing library                          : libebml v1.3.3 + libmatroska v1.4.4

Video
ID                                      : 1
Format                                  : HEVC
Format/Info                              : High Efficiency Video Coding
Format profile                          : Main 10@L4@Main
Codec ID                                : V_MPEGH/ISO/HEVC
Duration                                : 1h 42mn
Bit rate                                : 4 996 Kbps
Width                                    : 1 920 pixels
Height                                  : 800 pixels
Display aspect ratio                    : 2.40:1
Frame rate mode                          : Constant
Frame rate                              : 23.976 (24000/1001) fps
Color space                              : YUV
Chroma subsampling                      : 4:2:0
Bit depth                                : 10 bits
Bits/(Pixel*Frame)                      : 0.136
Stream size                              : 3.58 GiB (82%)
Title                                    : FHD - x265 | Filmbol.org
Writing library                          : x265 2.7+337-54ff74d2b635:[Windows][GCC 7.3.0][64 bit] 10bit
Encoding settings                        : cpuid=1111039 / frame-threads=3 / numa-pools=8 / wpp / no-pmode / no-pme / no-psnr / no-ssim / log-level=2 / input-csp=1 / input-res=1920x800 / interlace=0 / total-frames=147591 / level-idc=0 / high-tier=1 / uhd-bd=0 / ref=4 / no-allow-non-conformance / no-repeat-headers / annexb / no-aud / no-hrd / info / hash=0 / no-temporal-layers / open-gop / min-keyint=23 / keyint=250 / gop-lookahead=0 / bframes=4 / b-adapt=2 / b-pyramid / bframe-bias=0 / rc-lookahead=25 / lookahead-slices=4 / scenecut=40 / radl=0 / no-intra-refresh / ctu=64 / min-cu-size=8 / rect / no-amp / max-tu-size=32 / tu-inter-depth=1 / tu-intra-depth=1 / limit-tu=0 / rdoq-level=2 / dynamic-rd=0.00 / no-ssim-rd / signhide / no-tskip / nr-intra=0 / nr-inter=0 / no-constrained-intra / strong-intra-smoothing / max-merge=3 / limit-refs=3 / limit-modes / me=3 / subme=3 / merange=57 / temporal-mvp / weightp / no-weightb / no-analyze-src-pics / deblock=0:0 / sao / no-sao-non-deblock / rd=4 / no-early-skip / rskip / no-fast-intra / no-tskip-fast / no-cu-lossless / no-b-intra / no-splitrd-skip / rdpenalty=0 / psy-rd=2.00 / psy-rdoq=1.00 / no-rd-refine / no-lossless / cbqpoffs=0 / crqpoffs=0 / rc=abr / bitrate=5000 / qcomp=0.60 / qpstep=4 / stats-write=0 / stats-read=2 / cplxblur=20.0 / qblur=0.5 / ipratio=1.40 / pbratio=1.30 / aq-mode=3 / aq-strength=1.00 / cutree / zone-count=0 / no-strict-cbr / qg-size=32 / no-rc-grain / qpmax=69 / qpmin=0 / no-const-vbv / sar=0 / overscan=0 / videoformat=5 / range=0 / colorprim=2 / transfer=2 / colormatrix=2 / chromaloc=0 / display-window=0 / max-cll=0,0 / min-luma=0 / max-luma=1023 / log2-max-poc-lsb=8 / vui-timing-info / vui-hrd-info / slices=1 / no-opt-qp-pps / no-opt-ref-list-length-pps / multi-pass-opt-rps / scenecut-bias=0.05 / no-opt-cu-delta-qp / aq-motion / no-hdr / no-hdr-opt / no-dhdr10-opt / no-idr-recovery-sei / analysis-reuse-level=5 / scale-factor=0 / refine-intra=0 / refine-inter=0 / refine-mv=0 / no-limit-sao / ctu-info=0 / no-lowpass-dct / refine-mv-type=0 / copy-pic=1 / max-ausize-factor=1.0 / no-dynamic-refine / no-single-sei
Default                                  : Yes
Forced                                  : No

Audio #1
ID                                      : 2
Format                                  : AC-3
Format/Info                              : Audio Coding 3
Mode extension                          : CM (complete main)
Format settings, Endianness              : Big
Codec ID                                : A_AC3
Duration                                : 1h 42mn
Bit rate mode                            : Constant
Bit rate                                : 448 Kbps
Channel(s)                              : 6 channels
Channel positions                        : Front: L C R, Side: L R, LFE
Sampling rate                            : 48.0 KHz
Frame rate                              : 31.250 fps (1536 spf)
Compression mode                        : Lossy
Stream size                              : 329 MiB (7%)
Title                                    : Türkçe - Filmbol.org
Language                                : Turkish
Default                                  : Yes
Forced                                  : Yes

Audio #2
ID                                      : 3
Format                                  : AAC
Format/Info                              : Advanced Audio Codec
Format profile                          : LC
Codec ID                                : A_AAC
Duration                                : 1h 42mn
Bit rate                                : 643 Kbps
Channel(s)                              : 8 channels
Channel positions                        : Front: L C R, Side: 4, LFE
Sampling rate                            : 48.0 KHz
Frame rate                              : 46.875 fps (1024 spf)
Compression mode                        : Lossy
Delay relative to video                  : 20ms
Stream size                              : 472 MiB (11%)
Title                                    : İngilizce - Filmbol.org
Language                                : English
Default                                  : No
Forced                                  : No

Text
ID                                      : 4
Format                                  : VobSub
Muxing mode                              : zlib
Codec ID                                : S_VOBSUB
Codec ID/Info                            : Picture based subtitle format used on DVDs
Duration                                : 1h 42mn
Bit rate                                : 4 559 bps
Count of elements                        : 1005
Stream size                              : 3.33 MiB (0%)
Language                                : English
Default                                  : No
Forced                                  : No

Film Detayları


 300: Bir İmparatorluğun Yükselişi

 300: Bir İmparatorluğun Yükselişi

 300: Bir İmparatorluğun Yükselişi


Film Fragmanı


Film Detayları

Uptobox ile indir

1Fichier ile indir

1Fichier'den İndiremiyor musun? Tıklayın!


Mega ile indir

Bunun için üzgünüz ancak, bu linke sadece premium üyeler erişebilir.

Filmbol Cloud



Konu ile Alakalı Benzer Konular
Konular Yazar Yorumlar Okunma Son Yorum
Filmin Yayınlanma Tarihi: 2020
Lanetli Çocuk 2 (Brahms: The Boy II) - 2020 - TR+ORG - FHD - x265 BroserBros 0 53 25-07-2020, Saat: 20:08
Son Yorum: BroserBros
Filmin Yayınlanma Tarihi: 2019
Hellboy (Hellboy) - 2019 - TR+ORG - FHD - x265 BroserBros 0 106 03-07-2020, Saat: 12:39
Son Yorum: BroserBros
Filmin Yayınlanma Tarihi: 2020
Ritmi Hisset (Feel the Beat) - 2020 - TR+ORG - FHD - x265-10Bit BroserBros 0 167 26-06-2020, Saat: 20:20
Son Yorum: BroserBros
Filmin Yayınlanma Tarihi: 2019
Zombi Ülkesi: Çift Dokunuş (Zombieland: Double Tap) - 2019 - TR+ORG - FHD - x265-10Bit BroserBros 0 144 25-06-2020, Saat: 20:53
Son Yorum: BroserBros
Filmin Yayınlanma Tarihi: 2010
Toprak Altında (Buried) - 2010 - TR+ORG - FHD - x265-10Bit BroserBros 0 87 25-06-2020, Saat: 16:20
Son Yorum: BroserBros

Hızlı Menü: