Filmbol Forum Film İndir 1080P v 300: Bir İmparatorluğun Yükselişi (300: Rise of an Empire - 300 Spartalı 2) - 2014 - TR+ORG - 1080P
Moderatör Alımları Başladı! Başvuru yapmak için tıklayın.
Filmbol Premium'da %50'e varan indirim fırsatı!
300: Bir İmparatorluğun Yükselişi (300: Rise of an Empire - 300 Spartalı 2) - 2014 - TR+ORG - 1080P
BroserBros
300: Bir İmparatorluğun Yükselişi (300: Rise of an Empire - 300 Spartalı 2) - 2014 - TR+ORG - 1080P
0
130
  • Derecelendirme: 0/5 - 0 oy
  • 1
  • 2
  • 3
  • 4
  • 5
Konuyu Okuyanlar:1 Ziyaretçi
Şuan Online!
Filmin Yayınlanma Tarihi: 2014 
Şuan Online!
BroserBros Kurucu Admin
*******
Admin

Vizyon Tarihi


07 Mart 2014

imdb puanı


6,2 / 280,000

süre


102 dakika

Editör Puanı


7,0 / 10

Video Format: Mkv


Matroska (.MKV)

Ses Kodek: AC3


Audio Coding 3 (AC3)

sürüm


x264 | 1080P | BluRay

Boyutlar


1,96 GB



 300: Bir İmparatorluğun Yükselişi



Kral Leonidas ve koruması Thermopylae'nin dar kanyonlarında büyük bir Pers ordusunu uzaklaştırmayı başarmış, aynı zamanda general Themistocles de Persleri püskürtmek için askerlerini bir araya toplamaya çalışmaktadır.Xerxes, Yunan başkenti Atina'yı ele geçirir. Kanlı bir savaşa giren Themistocles bu arada çok özel bir düşmanla karşı karşıyadır:  Artemisia. Artemisia, acımasız ve entrikacı bir PErs ordusu lideridir ve Yunanlılara olan öfkesi onu daha bile tehlikeli hale getirmektedir. Themistocles'in bu savaşı kazanmak için eski rakipleriyle bir araya gelmek zorundadır. O rakipler de Spartalı savaşçılardan başkaları değildir.

300: Bir İmparatorluğun Yükselişi (2014) (300: Rise of an Empire - 300 Spartalı 2) Filmi Imdb'den 280,000 kişi tarafından oylandı ve 6,2 puan aldı. Bu film için editör puanı 7,0 olarak belirlendi. İyi Seyirler!

Teknik Detaylar

Kod :
General
Unique ID                                : 314645440250906517265105524871360594339 (0xECB681ED1EB1EC387DC2D7C8F20EC1A3)
Complete name                            : /root/Desktop/4/300.Bir.İmparatorluğun.Yükselişi.2014.1080p.BluRay.x264.TR.ENG.Filmbol.mkv
Format                                  : Matroska
Format version                          : Version 4 / Version 2
File size                                : 1.96 GiB
Duration                                : 1h 42mn
Overall bit rate                        : 2 736 Kbps
Movie name                              : 300: Bir İmparatorluğun Yükselişi - 300 Rise of an Empire - 2014 | Filmbol.org
Encoded date                            : UTC 2020-06-03 11:17:40
Writing application                      : mkvmerge v8.8.0 ('Wind at my back') 64bit
Writing library                          : libebml v1.3.3 + libmatroska v1.4.4

Video
ID                                      : 1
Format                                  : AVC
Format/Info                              : Advanced Video Codec
Format profile                          : High@L4.1
Format settings, CABAC                  : Yes
Format settings, ReFrames                : 4 frames
Codec ID                                : V_MPEG4/ISO/AVC
Duration                                : 1h 42mn
Bit rate                                : 2 193 Kbps
Width                                    : 1 920 pixels
Height                                  : 800 pixels
Display aspect ratio                    : 2.40:1
Frame rate mode                          : Constant
Frame rate                              : 23.976 (24000/1001) fps
Original frame rate                      : 23.976 (23976/1000) fps
Color space                              : YUV
Chroma subsampling                      : 4:2:0
Bit depth                                : 8 bits
Scan type                                : Progressive
Bits/(Pixel*Frame)                      : 0.060
Stream size                              : 1.57 GiB (80%)
Title                                    : 1080P - Filmbol.org
Writing library                          : x264 core 142 r2409 d6b4e63
Encoding settings                        : cabac=1 / ref=4 / deblock=1:-1:-1 / analyse=0x3:0x133 / me=umh / subme=9 / psy=1 / psy_rd=1.00:0.15 / mixed_ref=1 / me_range=24 / chroma_me=1 / trellis=2 / 8x8dct=1 / cqm=0 / deadzone=21,11 / fast_pskip=0 / chroma_qp_offset=-3 / threads=48 / lookahead_threads=4 / sliced_threads=0 / nr=0 / decimate=1 / interlaced=0 / bluray_compat=0 / constrained_intra=0 / bframes=3 / b_pyramid=2 / b_adapt=2 / b_bias=0 / direct=3 / weightb=1 / open_gop=0 / weightp=2 / keyint=250 / keyint_min=23 / scenecut=40 / intra_refresh=0 / rc_lookahead=60 / rc=2pass / mbtree=1 / bitrate=2193 / ratetol=1.0 / qcomp=0.60 / qpmin=0 / qpmax=69 / qpstep=4 / cplxblur=20.0 / qblur=0.5 / vbv_maxrate=31250 / vbv_bufsize=31250 / nal_hrd=none / filler=0 / ip_ratio=1.40 / aq=1:1.00
Default                                  : Yes
Forced                                  : No
Color range                              : Limited
Color primaries                          : BT.709
Matrix coefficients                      : BT.709

Audio #1
ID                                      : 2
Format                                  : AC-3
Format/Info                              : Audio Coding 3
Mode extension                          : CM (complete main)
Format settings, Endianness              : Big
Codec ID                                : A_AC3
Duration                                : 1h 42mn
Bit rate mode                            : Constant
Bit rate                                : 448 Kbps
Channel(s)                              : 6 channels
Channel positions                        : Front: L C R, Side: L R, LFE
Sampling rate                            : 48.0 KHz
Frame rate                              : 31.250 fps (1536 spf)
Compression mode                        : Lossy
Stream size                              : 329 MiB (16%)
Title                                    : Türkçe - Filmbol.org
Language                                : Turkish
Default                                  : Yes
Forced                                  : Yes

Audio #2
ID                                      : 3
Format                                  : AAC
Format/Info                              : Advanced Audio Codec
Format profile                          : LC
Codec ID                                : A_AAC
Duration                                : 1h 42mn
Bit rate                                : 93.7 Kbps
Channel(s)                              : 2 channels
Channel positions                        : Front: L R
Sampling rate                            : 48.0 KHz
Frame rate                              : 46.875 fps (1024 spf)
Compression mode                        : Lossy
Stream size                              : 68.8 MiB (3%)
Title                                    : İngilizce - Filmbol.org
Language                                : English
Default                                  : No
Forced                                  : No

Film Detayları


 300: Bir İmparatorluğun Yükselişi

 300: Bir İmparatorluğun Yükselişi

 300: Bir İmparatorluğun Yükselişi


Film Fragmanı


Film Detayları

Uptobox ile indir

1Fichier ile indir

1Fichier'den İndiremiyor musun? Tıklayın!


Mega ile indir

Bunun için üzgünüz ancak, bu linke sadece premium üyeler erişebilir.

Filmbol Cloud



Konu ile Alakalı Benzer Konular
Konular Yazar Yorumlar Okunma Son Yorum
Filmin Yayınlanma Tarihi: 2018
Mogli: Orman Çocuğu (Mowgli) Türkçe Dublaj BLURAY 1080P İndir BroserBros 10 844 19-09-2020, Saat: 13:11
Son Yorum: Rocklion17
Filmin Yayınlanma Tarihi: 2020
The Hunt (Av) - 2020 - TR+ORG - 1080P BroserBros 0 284 18-09-2020, Saat: 19:28
Son Yorum: BroserBros
Filmin Yayınlanma Tarihi: 2018
Gözbebeğim (Pupille) - 2018 - TR+ORG - 1080P BroserBros 0 290 18-09-2020, Saat: 13:02
Son Yorum: BroserBros
Filmin Yayınlanma Tarihi: 2019
Umut Vadisi (Hope Gap) - 2019 - TR+ORG - 1080P BroserBros 0 287 18-09-2020, Saat: 12:52
Son Yorum: BroserBros
Filmin Yayınlanma Tarihi: 2020
Görünmez Adam (The Invisible Man) - 2020 - TR+ORG - 1080P BroserBros 1 143 16-09-2020, Saat: 20:10
Son Yorum: berkangungor

Hızlı Menü: