Filmbol Forum Film İndir BRRip XviD v 300: Bir İmparatorluğun Yükselişi (300: Rise of an Empire - 300 Spartalı 2) - 2014 - TR - BRRip XviD
Moderatör Alımları Başladı! Başvuru yapmak için tıklayın.
Filmbol Premium'da %50'e varan indirim fırsatı!
300: Bir İmparatorluğun Yükselişi (300: Rise of an Empire - 300 Spartalı 2) - 2014 - TR - BRRip XviD
BroserBros
300: Bir İmparatorluğun Yükselişi (300: Rise of an Empire - 300 Spartalı 2) - 2014 - TR - BRRip XviD
0
132
  • Derecelendirme: 0/5 - 0 oy
  • 1
  • 2
  • 3
  • 4
  • 5
Konuyu Okuyanlar:1 Ziyaretçi
Şuan Offine!
Filmin Yayınlanma Tarihi: 2014 
Şuan Offine!
BroserBros Kurucu Admin
*******
Admin

Vizyon Tarihi


07 Mart 2014

imdb puanı


6,2 / 280,000

süre


102 dakika

Editör Puanı


7,0 / 10

Video Format: Avi


Audio Video Interleave (.AVI)

Ses Kodek: MP3


MPEG-1 Audio Layer III (MP3)

sürüm


h263 | BRRip XviD

Boyutlar


0,70 GB



 300: Bir İmparatorluğun Yükselişi



Kral Leonidas ve koruması Thermopylae'nin dar kanyonlarında büyük bir Pers ordusunu uzaklaştırmayı başarmış, aynı zamanda general Themistocles de Persleri püskürtmek için askerlerini bir araya toplamaya çalışmaktadır.Xerxes, Yunan başkenti Atina'yı ele geçirir. Kanlı bir savaşa giren Themistocles bu arada çok özel bir düşmanla karşı karşıyadır:  Artemisia. Artemisia, acımasız ve entrikacı bir PErs ordusu lideridir ve Yunanlılara olan öfkesi onu daha bile tehlikeli hale getirmektedir. Themistocles'in bu savaşı kazanmak için eski rakipleriyle bir araya gelmek zorundadır. O rakipler de Spartalı savaşçılardan başkaları değildir.

300: Bir İmparatorluğun Yükselişi (2014) (300: Rise of an Empire - 300 Spartalı 2) Filmi Imdb'den 280,000 kişi tarafından oylandı ve 6,2 puan aldı. Bu film için editör puanı 7,0 olarak belirlendi. İyi Seyirler!

Teknik Detaylar

Kod :
General
Complete name                            : /root/Desktop/4/300.Bir.İmparatorluğun.Yükselişi.2014.BRRip.XviD.avi
Format                                  : AVI
Format/Info                              : Audio Video Interleave
File size                                : 700 MiB
Duration                                : 1h 51mn
Overall bit rate mode                    : Variable
Overall bit rate                        : 875 Kbps
Writing application                      : VirtualDubMod 1.5.4.1 (build 2178/release)
Writing library                          : VirtualDubMod build 2178/release

Video
ID                                      : 0
Format                                  : MPEG-4 Visual
Format profile                          : Advanced Simple@L5
Format settings, BVOP                    : 1
Format settings, QPel                    : No
Format settings, GMC                    : No warppoints
Format settings, Matrix                  : Custom
Codec ID                                : XVID
Codec ID/Hint                            : XviD
Duration                                : 1h 51mn
Bit rate                                : 744 Kbps
Width                                    : 592 pixels
Height                                  : 256 pixels
Display aspect ratio                    : 2.35:1
Frame rate                              : 25.000 fps
Color space                              : YUV
Chroma subsampling                      : 4:2:0
Bit depth                                : 8 bits
Scan type                                : Progressive
Compression mode                        : Lossy
Bits/(Pixel*Frame)                      : 0.196
Stream size                              : 595 MiB (85%)
Writing library                          : XviD 1.1.2 (UTC 2006-11-01)

Audio
ID                                      : 1
Format                                  : MPEG Audio
Format version                          : Version 1
Format profile                          : Layer 3
Mode                                    : Joint stereo
Mode extension                          : MS Stereo
Codec ID                                : 55
Codec ID/Hint                            : MP3
Duration                                : 1h 51mn
Bit rate mode                            : Variable
Bit rate                                : 118 Kbps
Nominal bit rate                        : 128 Kbps
Channel(s)                              : 2 channels
Sampling rate                            : 48.0 KHz
Compression mode                        : Lossy
Stream size                              : 94.4 MiB (13%)
Alignment                                : Aligned on interleaves
Interleave, duration                    : 24 ms (0.60 video frame)
Interleave, preload duration            : 156 ms
Writing library                          : LAME3.97
Encoding settings                        : -m j -V 4 -q 2 -lowpass 17 --abr 128

Film Detayları


 300: Bir İmparatorluğun Yükselişi

 300: Bir İmparatorluğun Yükselişi

 300: Bir İmparatorluğun Yükselişi


Film Fragmanı


Film Detayları


Uptobox ile indir

1Fichier ile indir

1Fichier'den İndiremiyor musun? Tıklayın!


Mega ile indir

Bunun için üzgünüz ancak, bu linke sadece premium üyeler erişebilir.

Filmbol Cloud



Konu ile Alakalı Benzer Konular
Konular Yazar Yorumlar Okunma Son Yorum
Filmin Yayınlanma Tarihi: 2020
Holly Slept Over (Holly Slept Over) - 2020 - TR - BRRip XviD BroserBros 0 223 08-10-2020, Saat: 20:08
Son Yorum: BroserBros
Filmin Yayınlanma Tarihi: 2019
Rahat Kız (An Easy Girl) - 2019 - TR - BRRip XviD BroserBros 0 231 08-10-2020, Saat: 19:34
Son Yorum: BroserBros
Filmin Yayınlanma Tarihi: 2020
Mavi Korku 3 (Deep Blue Sea 3) - 2020 - TR - BRRip XviD BroserBros 0 323 03-10-2020, Saat: 21:11
Son Yorum: BroserBros
Filmin Yayınlanma Tarihi: 2018
Fast Color: Gücünü Serbest Bırak (Fast Color) - 2018 - TR - BRRip XviD BroserBros 0 127 03-10-2020, Saat: 16:46
Son Yorum: BroserBros
Filmin Yayınlanma Tarihi: 2018
Ölümcül Makineler (Mortal Engines) Türkçe Dublaj Brrip Xvid İndir BroserBros 2 436 03-10-2020, Saat: 01:49
Son Yorum: sectechno

Hızlı Menü: