Filmbol Forum Film İndir BRRip XviD v 15 Dakika Savaş (L'intervention) - 2019 - TR - BRRip XviD
Filmbol'da moderatör olmak ister misiniz? Bizimle iletişime geçmek için tıklayın!
21.12.2020 tarihinden itibaren yayınlanacak olan filmlerde 4K ve FHD sürümleri sadece premium üyelere açık olarak paylaşılacaktır. Diğer (XviD, 720P, 1080P, 3D) sürümleri normal üyeler sorunsuzca kullanmaya devam edebilecektir.
15 Dakika Savaş (L'intervention) - 2019 - TR - BRRip XviD
BroserBros
15 Dakika Savaş (L'intervention) - 2019 - TR - BRRip XviD
0
96
  • Derecelendirme: 0/5 - 0 oy
  • 1
  • 2
  • 3
  • 4
  • 5
Konuyu Okuyanlar:1 Ziyaretçi
Şuan Online!
Filmin Yayınlanma Tarihi: 2019 
Şuan Online!
BroserBros Kurucu Admin
*******
Admin

Vizyon Tarihi


30 Ocak 2019

imdb puanı


6,3 / 2,500

süre


98 dakika

Editör Puanı


6,0 / 10

Video Format: Avi


Audio Video Interleave (.AVI)

Ses Kodek: MP3


MPEG-1 Audio Layer III (MP3)

sürüm


h263 | BRRip XviD

Boyutlar


1,01 GB



 15 Dakika Savaş



Somali sınırlarında bir otobüs rehin alındığında ve içersinde okula giden çocuklar yer aldığında, devletin kusursuz kurtarma planınına şahit olursunuz.

15 Dakika Savaş (2019) (L'intervention) Filmi Imdb'den 2,500 kişi tarafından oylandı ve 6,3 puan aldı. Bu film için editör puanı 6,0 olarak belirlendi. İyi Seyirler!

Teknik Detaylar

Kod :
General
Complete name                            : /root/Desktop/7/15.Dakika.Savaş.2019.BRRip.XViD.TR.Filmbol.avi
Format                                  : AVI
Format/Info                              : Audio Video Interleave
File size                                : 1 019 MiB
Duration                                : 1h 38mn
Overall bit rate                        : 1 448 Kbps

Video
ID                                      : 0
Format                                  : MPEG-4 Visual
Format profile                          : Advanced [email protected]
Format settings, BVOP                    : 2
Format settings, QPel                    : No
Format settings, GMC                    : No warppoints
Format settings, Matrix                  : Default (MPEG)
Codec ID                                : XVID
Codec ID/Hint                            : XviD
Duration                                : 1h 38mn
Bit rate                                : 1 307 Kbps
Width                                    : 720 pixels
Height                                  : 304 pixels
Display aspect ratio                    : 2.35:1
Frame rate                              : 24.000 fps
Color space                              : YUV
Chroma subsampling                      : 4:2:0
Bit depth                                : 8 bits
Scan type                                : Progressive
Compression mode                        : Lossy
Bits/(Pixel*Frame)                      : 0.249
Stream size                              : 920 MiB (90%)
Writing library                          : XviD 64

Audio
ID                                      : 1
Format                                  : MPEG Audio
Format version                          : Version 1
Format profile                          : Layer 3
Mode                                    : Joint stereo
Mode extension                          : MS Stereo
Codec ID                                : 55
Codec ID/Hint                            : MP3
Duration                                : 1h 38mn
Bit rate mode                            : Constant
Bit rate                                : 128 Kbps
Channel(s)                              : 2 channels
Sampling rate                            : 48.0 KHz
Compression mode                        : Lossy
Stream size                              : 90.1 MiB (9%)
Alignment                                : Aligned on interleaves
Interleave, duration                    : 24 ms (0.58 video frame)

Film Detayları


 15 Dakika Savaş

 15 Dakika Savaş

 15 Dakika Savaş


Film Fragmanı


Film Detayları


Uptobox ile indir

1Fichier ile indir

1Fichier'den İndiremiyor musun? Tıklayın!


Mega linki şuan da gizli. Kullanıma açmak için konuya yorum yapın ve ardından sayfayı yenileyin.

Mega


Bunun için üzgünüz ancak, bu linke sadece premium üyeler erişebilir.

Filmbol Cloud



Konu ile Alakalı Benzer Konular
Konular Yazar Yorumlar Okunma Son Yorum
Filmin Yayınlanma Tarihi: 2019
Ölümcül Sular (Crawl) Türkçe Dublaj Brrip Xvid İndir BroserBros 5 565 3 saat önce
Son Yorum: Furkan61
Filmin Yayınlanma Tarihi: 2002
Örümcek-Adam (Spider-Man) Türkçe Dublaj BRRip XviD İndir BroserBros 1 439 3 saat önce
Son Yorum: Furkan61
Filmin Yayınlanma Tarihi: 2019
Terminatör: Kara Kader (Terminator: Dark Fate) türkçe Dublaj BRRip XviD indir BroserBros 6 478 3 saat önce
Son Yorum: Furkan61
Filmin Yayınlanma Tarihi: 2019
Hemen Döneriz (Yerli) - 2019 - TR - BRRip XviD BroserBros 0 29 , Saat: 20:59
Son Yorum: BroserBros
Filmin Yayınlanma Tarihi: 2020
40'ından Sonra (The Forty-Year-Old Version) - 2020 - TR - BRRip XviD BroserBros 0 30 , Saat: 20:31
Son Yorum: BroserBros

Hızlı Menü: