Hoşgeldin, Ziyaretçi: Giriş Yap Üye Ol


Konuyu Oyla:
  • Derecelendirme: 0/5 - 0 oy
  • 1
  • 2
  • 3
  • 4
  • 5
Tüm Sırların Sahibi Kız (The Girl with All the Gifts) Türkçe Dublaj m1080P İndir
#1
Filmin Yayınlanma Tarihi: 2016 

indirme türü


Bulut + Premium

vizyon tarihi


30 Aralık 2016

Boyutlar


1,77GB

diller


[TR]

altyazilar


Yok [Eklenebilir]

Video Format: Mkv


Matroska (.MKV)

Video Detay


MPEG-4, 1999 Kbps, 1,51 GB

imdb puanı


6,7 / 10,0 / 20,000

süre


111 dakika

Ses Kodek: AC3


Audio Coding 3 (AC3)

Ses Detay


224 Kbps, 2 Kanal, 178 Mb

rarsifresi


filmbol.org

Editör Puanı


6,2

Genislik Yukseklik


1920x960

sürüm


x264 | m1080P




Film Detayları

Günümüzden çok daha uzak olmayan bir gelecek şu anki zamanımızdan tamamen farklıdır. İnsanların özgür iradesini yok eden ve onları birbirlerini yemeye iten bir virüs sebebiyle insanlık yok oluşun eşiğindedir. Yalnızca bir grup çocuk virüsten etkilenmemeyi başarmıştır. Virüsten etkilenseler de bir şekilde duygu ve düşüncelerini korumayı başarmaktadırlar. İngiltere'deki bir askeri üste bu çocuklar Dr. Caldwell tarafından yönetilen zalimce tıbbi testlere maruz kalmaktadırlar. İnsanlığın tek umudu olan bu çocuklar bulundukları üssün saldırıya uğraması ile dağılır. Çocukların arasında diğerlerinden daha farklı olan Melanie, öğretmenleri bayan Justineau, Çavuş Parks ve Dr. Caldwell üsten kaçmayı başarır. Artık insanlığın kaderini yalnızca Melanie belirleyebilecektir...

Colm McCarthy'nin yönetmenliğini üstlendiği filmin başrollerinde Gemma Arterton, Glenn Close, Paddy Considine yer alıyor.

Teknik Detaylar

Kod:
General
Format                                   : Matroska
Format version                           : Version 4 / Version 2
File size                                : 1.72 GiB
Duration                                 : 1h 50mn
Overall bit rate                         : 2 223 Kbps
Movie name                               : The Girl With All The Gift - Filmbol.org

Video
ID                                       : 1
Format                                   : AVC
Format/Info                              : Advanced Video Codec
Format profile                           : High@L4.1
Format settings, CABAC                   : Yes
Format settings, ReFrames                : 4 frames
Codec ID                                 : V_MPEG4/ISO/AVC
Duration                                 : 1h 50mn
Bit rate                                 : 1 999 Kbps
Width                                    : 1 920 pixels
Height                                   : 960 pixels
Display aspect ratio                     : 2.000
Frame rate mode                          : Constant
Frame rate                               : 23.976 fps
Color space                              : YUV
Chroma subsampling                       : 4:2:0
Bit depth                                : 8 bits
Scan type                                : Progressive
Bits/(Pixel*Frame)                       : 0.045
Stream size                              : 1.51 GiB (88%)
Title                                    : m1080P - Filmbol.org
Writing library                          : x264 core 148 r2638 7599210
Default                                  : Yes
Forced                                   : No
Color primaries                          : BT.709
Matrix coefficients                      : BT.709

Audio
ID                                       : 2
Format                                   : AC-3
Format/Info                              : Audio Coding 3
Mode extension                           : CM (complete main)
Format settings, Endianness              : Big
Codec ID                                 : A_AC3
Duration                                 : 1h 50mn
Bit rate mode                            : Constant
Bit rate                                 : 224 Kbps
Channel(s)                               : 2 channels
Channel positions                        : Front: L R
Sampling rate                            : 48.0 KHz
Bit depth                                : 16 bits
Compression mode                         : Lossy
Stream size                              : 178 MiB (10%)
Title                                    : Türkçe - Filmbol.org
Language                                 : Turkish
Default                                  : Yes
Forced                                   : No



Film Detayları


The Girl with All the Gifts

The Girl with All the Gifts

The Girl with All the Gifts

The Girl with All the Gifts

The Girl with All the Gifts


Film Fragmanı


Film Detayları

Mini 1080P İndir


Turbobit İle İndir

Mega ile indir

Uptobox ile indir

Mypcloud ile indir

 
Alinti
  


Hızlı Menü:


Şu anda bu konuyu okuyanlar: 1 Ziyaretçi