Hoşgeldin, Ziyaretçi: Giriş Yap Üye Ol


Konuyu Oyla:
  • Derecelendirme: 0/5 - 0 oy
  • 1
  • 2
  • 3
  • 4
  • 5
Tüm Sırların Sahibi Kız (The Girl with All the Gifts) Türkçe Dublaj Brrip-Xvid İndir
#1
Filmin Yayınlanma Tarihi: 2016 

indirme türü


Bulut + Premium

vizyon tarihi


30 Aralık 2016

Boyutlar


1,19GB

diller


[TR]

altyazilar


Yok [Eklenebilir]

Video Format: Avi


Audio Video Interleave (.AVI)

Video Detay


MPEG-4, 1408 Kbps, 1,09 GB

imdb puanı


6,7 / 10,0 / 20,000

süre


111 dakika

Ses Kodek: MP3


MPEG-1 Audio Layer III (MP3)

Ses Detay


128 Kbps, 2 Kanal, 102 Mb

rarsifresi


filmbol.org

Editör Puanı


6,2

Genislik Yukseklik


720x360

sürüm


h263 | Brrip-Xvid




Film Detayları

Günümüzden çok daha uzak olmayan bir gelecek şu anki zamanımızdan tamamen farklıdır. İnsanların özgür iradesini yok eden ve onları birbirlerini yemeye iten bir virüs sebebiyle insanlık yok oluşun eşiğindedir. Yalnızca bir grup çocuk virüsten etkilenmemeyi başarmıştır. Virüsten etkilenseler de bir şekilde duygu ve düşüncelerini korumayı başarmaktadırlar. İngiltere'deki bir askeri üste bu çocuklar Dr. Caldwell tarafından yönetilen zalimce tıbbi testlere maruz kalmaktadırlar. İnsanlığın tek umudu olan bu çocuklar bulundukları üssün saldırıya uğraması ile dağılır. Çocukların arasında diğerlerinden daha farklı olan Melanie, öğretmenleri bayan Justineau, Çavuş Parks ve Dr. Caldwell üsten kaçmayı başarır. Artık insanlığın kaderini yalnızca Melanie belirleyebilecektir...

Colm McCarthy'nin yönetmenliğini üstlendiği filmin başrollerinde Gemma Arterton, Glenn Close, Paddy Considine yer alıyor.

Teknik Detaylar

Kod:
General
Format                                   : AVI
Format/Info                              : Audio Video Interleave
File size                                : 1.20 GiB
Duration                                 : 1h 50mn
Overall bit rate                         : 1 546 Kbps

Video
ID                                       : 0
Format                                   : MPEG-4 Visual
Format profile                           : Advanced Simple@L5
Format settings, BVOP                    : 2
Format settings, QPel                    : No
Format settings, GMC                     : No warppoints
Format settings, Matrix                  : Default (H.263)
Muxing mode                              : Packed bitstream
Codec ID                                 : XVID
Codec ID/Hint                            : XviD
Duration                                 : 1h 50mn
Bit rate                                 : 1 408 Kbps
Width                                    : 720 pixels
Height                                   : 360 pixels
Display aspect ratio                     : 2.000
Frame rate                               : 23.976 fps
Color space                              : YUV
Chroma subsampling                       : 4:2:0
Bit depth                                : 8 bits
Scan type                                : Progressive
Compression mode                         : Lossy
Bits/(Pixel*Frame)                       : 0.227
Stream size                              : 1.09 GiB (91%)
Writing library                          : XviD 66

Audio
ID                                       : 1
Format                                   : MPEG Audio
Format version                           : Version 1
Format profile                           : Layer 3
Mode                                     : Joint stereo
Mode extension                           : MS Stereo
Codec ID                                 : 55
Codec ID/Hint                            : MP3
Duration                                 : 1h 50mn
Source duration                          : 1h 50mn
Bit rate mode                            : Constant
Bit rate                                 : 128 Kbps
Channel(s)                               : 2 channels
Sampling rate                            : 48.0 KHz
Compression mode                         : Lossy
Stream size                              : 102 MiB (8%)
Alignment                                : Aligned on interleaves
Interleave, duration                     : 42 ms (1.00 video frame)
Writing library                          : LAME3.99.5



Film Detayları


The Girl with All the Gifts

The Girl with All the Gifts

The Girl with All the Gifts

The Girl with All the Gifts

The Girl with All the Gifts


Film Fragmanı


Film Detayları

Brrip İndir


Turbobit İle İndir

Mega ile indir

Uptobox ile indir

Mypcloud ile indir

 
Alinti
  


Konu ile Alakalı Benzer Konular
Konular Yazar Yorumlar Okunma Son Yorum
Filmin Yayınlanma Tarihi: 2018 Sessiz Bir Yer (A Quiet Place) Türkçe Dublaj Brrip-Xvid İndir BroserBros 0 38 25-07-2018, Saat: 10:37
Son Yorum: BroserBros
Filmin Yayınlanma Tarihi: 2016 Ölüm Alfabesi: Kötülüğün Başlangıcı Türkçe Dublaj Brrip-Xvid İndir BroserBros 0 551 25-02-2017, Saat: 21:17
Son Yorum: BroserBros
Filmin Yayınlanma Tarihi: 2016 Cadı (The Witch) Türkçe Dublaj Brrip-Xvid İndir BroserBros 0 462 21-02-2017, Saat: 21:42
Son Yorum: BroserBros
Filmin Yayınlanma Tarihi: 2016 Lanetli Mesaj (Friend Request) Türkçe Dublaj Brrip-Xvid İndir BroserBros 0 539 18-02-2017, Saat: 23:05
Son Yorum: BroserBros
Filmin Yayınlanma Tarihi: 2015 Kemik Balta (Bone Tomahawk) Türkçe Dublaj Brrip-Xvid İndir BroserBros 0 432 05-02-2017, Saat: 20:05
Son Yorum: BroserBros

Hızlı Menü:


Şu anda bu konuyu okuyanlar: 1 Ziyaretçi