Hoşgeldin, Ziyaretçi: Giriş Yap Üye Ol


Konuyu Oyla:
  • Derecelendirme: 0/5 - 0 oy
  • 1
  • 2
  • 3
  • 4
  • 5
Suikastçi (The Assasin) Türkçe Dublaj m720P İndir
#1
Filmin Yayınlanma Tarihi: 2015 

indirme türü


Bulut + Premium

vizyon tarihi


27 Ağustos 2015

Boyutlar


0,92GB

diller


[TR]

altyazilar


Yok [Eklenebilir]

Video Format: Mkv


Matroska (.MKV)

Video Detay


MPEG-4, 1000 Kbps, 0,73GB

imdb puanı


6,4 / 10,0 / 10,000

süre


105 dakika

Ses Kodek: AC3


Audio Coding 3 (AC3)

Ses Detay


128 Kbps, 2 Kanal, 96 Mb

rarsifresi


filmbol.org

Editör Puanı


6,2

Genislik Yukseklik


1280x720

sürüm


x264 | m720P




Film Detayları

Üç yıllık sürgünün ardından evine geri dönen genç kadın ustası tarafından kuzenini ve beşik kertmesini öldürmesi için görevlendirilince kuzeni ve onu yetiştirenlere duyduğu sadakat arasında seçim yapmak zorunda kalır. Genç kadın 13 yıl sonra ailesiyle, anılarıyla ve uzun yıllar bastırdığı duygularıyla yüzleşecektir. Rahibenin kölesine dönüşen Yinniang'ın iki seçeneği vardır: Ya sevdiği adamı feda edecektir ya da erdemli suikastçıların kutsal yolundan sonsuza dek sapacaktır.Maharetli yönetmen Hou Hsiao Hsien'ın kamera arkasına geçtiği ve başrolde güzel yıldız Shu Qi'yi izlediğimiz film, "The Extensive Records Of The Taiping Era" adlı öyküden yola çıkılarak beyazperdeye aktarılıyor.


Teknik Detaylar


Kod:
General
Format                                   : Matroska
Format version                           : Version 4 / Version 2
File size                                : 922 MiB
Duration                                 : 1h 45mn
Overall bit rate                         : 1 223 Kbps
Movie name                               : The Assasin - Filmbol.org

Video
ID                                       : 2
Format                                   : AVC
Format/Info                              : Advanced Video Codec
Format profile                           : High@L4.1
Format settings, CABAC                   : Yes
Format settings, ReFrames                : 5 frames
Codec ID                                 : V_MPEG4/ISO/AVC
Duration                                 : 1h 45mn
Bit rate                                 : 1 000 Kbps
Width                                    : 1 280 pixels
Height                                   : 720 pixels
Display aspect ratio                     : 16:9
Frame rate mode                          : Constant
Frame rate                               : 24.000 fps
Color space                              : YUV
Chroma subsampling                       : 4:2:0
Bit depth                                : 8 bits
Scan type                                : Progressive
Bits/(Pixel*Frame)                       : 0.045
Stream size                              : 735 MiB (80%)
Title                                    : m720P - Filmbol.org
Writing library                          : x264 core 146 r2538 121396c
Default                                  : Yes
Forced                                   : No
Color primaries                          : BT.709
Matrix coefficients                      : BT.709

Audio
ID                                       : 1
Format                                   : AC-3
Format/Info                              : Audio Coding 3
Mode extension                           : CM (complete main)
Format settings, Endianness              : Big
Codec ID                                 : A_AC3
Duration                                 : 1h 45mn
Bit rate mode                            : Constant
Bit rate                                 : 224 Kbps
Channel(s)                               : 2 channels
Channel positions                        : Front: L R
Sampling rate                            : 48.0 KHz
Bit depth                                : 16 bits
Compression mode                         : Lossy
Stream size                              : 169 MiB (18%)
Title                                    : Türkçe - Filmbol.org
Language                                 : Turkish
Default                                  : Yes
Forced                                   : No


Film Detayları


The Assasin

The Assasin

The Assasin

The Assasin

The Assasin


Film Fragmanı


Film Detayları

Mini 720P İndir


Turbobit İle İndir

Mega ile indir

Uptobox ile indir

Cloud Ru ile indir

 
Alinti
  


Hızlı Menü:


Şu anda bu konuyu okuyanlar: 1 Ziyaretçi