Hoşgeldin, Ziyaretçi: Giriş Yap Üye Ol


Konuyu Oyla:
  • Derecelendirme: 0/5 - 0 oy
  • 1
  • 2
  • 3
  • 4
  • 5
Sokak Kedisi Bob (A Street Cat Named Bob) Türkçe Dublaj m720P İndir
#1
Filmin Yayınlanma Tarihi: 2016 

indirme türü


Bulut + Premium

vizyon tarihi


20 Ocak 2017

Boyutlar


0,86GB

diller


[TR]

altyazilar


Yok [Eklenebilir]

Video Format: Mkv


Matroska (.MKV)

Video Detay


MPEG-4, 949 Kbps, 0,68 GB

imdb puanı


7,4 / 10,0 / 10,000

süre


103 dakika

Ses Kodek: AC3


Audio Coding 3 (AC3)

Ses Detay


224 Kbps, 2 Kanal, 165 Mb

rarsifresi


filmbol.org

Editör Puanı


6,4

Genislik Yukseklik


1280x536

sürüm


x264 | m720P




Film Detayları

Londra’da yaşayan evsiz ve rehabilitasyonda olan eski eroin bağımlısı james bowen sokaklarda şarkı söyleyerek hayatta kalmaya çalışmaktadır. sokakta bulduğu hasta sokak kedisini tedavi ettirmek için evine alır ve hayatı bundan sonra değişir. Bob ismini verdiği kedisi iyileştikten sonra her gün onunla londra’da otobüsle seyahat ettikten sonra sokakta şarkı söylerken ona eşlik etmeye başlar ve olaylar gelişir…

Teknik Detaylar

Kod:
General
Format                                   : Matroska
Format version                           : Version 4 / Version 2
File size                                : 863 MiB
Duration                                 : 1h 42mn
Overall bit rate                         : 1 173 Kbps
Movie name                               : A Street Cat Named Bob - filmbol.org

Video
ID                                       : 1
Format                                   : AVC
Format/Info                              : Advanced Video Codec
Format profile                           : High@L4.1
Format settings, CABAC                   : Yes
Format settings, ReFrames                : 5 frames
Codec ID                                 : V_MPEG4/ISO/AVC
Duration                                 : 1h 42mn
Bit rate                                 : 949 Kbps
Width                                    : 1 280 pixels
Height                                   : 536 pixels
Display aspect ratio                     : 2.40:1
Frame rate mode                          : Constant
Frame rate                               : 23.976 fps
Color space                              : YUV
Chroma subsampling                       : 4:2:0
Bit depth                                : 8 bits
Scan type                                : Progressive
Bits/(Pixel*Frame)                       : 0.058
Stream size                              : 681 MiB (79%)
Title                                    : m720P - Filmbol.org
Writing library                          : x264 core 148 r2638 7599210
Default                                  : Yes
Forced                                   : No
Color primaries                          : BT.709
Matrix coefficients                      : BT.709

Audio
ID                                       : 2
Format                                   : AC-3
Format/Info                              : Audio Coding 3
Mode extension                           : CM (complete main)
Format settings, Endianness              : Big
Codec ID                                 : A_AC3
Duration                                 : 1h 42mn
Bit rate mode                            : Constant
Bit rate                                 : 224 Kbps
Channel(s)                               : 2 channels
Channel positions                        : Front: L R
Sampling rate                            : 48.0 KHz
Bit depth                                : 16 bits
Compression mode                         : Lossy
Stream size                              : 165 MiB (19%)
Title                                    : Türkçe - Filmbol.org
Language                                 : Turkish
Default                                  : Yes
Forced                                   : No



Film Detayları



A Street Cat Named Bob

A Street Cat Named Bob

A Street Cat Named Bob

A Street Cat Named Bob

A Street Cat Named Bob



Film Fragmanı


Film Detayları

Mini 720P İndir


Turbobit İle İndir

Mega ile indir

Uptobox ile indir

Mypcloud ile indir

 
Alinti
  


Hızlı Menü:


Şu anda bu konuyu okuyanlar: 1 Ziyaretçi