Hoşgeldin, Ziyaretçi: Giriş Yap Üye Ol


Hoşgeldin, Ziyaretçi
Sitemizden yararlanabilmek için Kayıt olmalısınız.

Kullanıcı Adı/E-Posta:
  

Şifreniz:
  





Forumda Ara

(Gelişmiş Arama)

Forum İstatistikleri
» Toplam Üyeler: 425
» Son Üye: yasin1234
» Toplam Konular: 770
» Toplam Yorumlar: 790

Detaylı İstatistikler

Kimler Çevrimiçi
Toplam: 20 kullanıcı aktif
» 0 Kayıtlı
» 20 Ziyaretçi

Son Aktiviteler
Belalı Tanık (2017) Türkç...
yazar BroserBros
10-08-2018, Saat: 13:31
Belalı Tanık (2017) Türkç...
yazar BroserBros
10-08-2018, Saat: 13:31
Belalı Tanık (2017) Türkç...
yazar BroserBros
10-08-2018, Saat: 13:31
Yenilmezler: Sonsuzluk Sa...
yazar BroserBros
09-08-2018, Saat: 18:11
Yenilmezler: Sonsuzluk Sa...
yazar BroserBros
09-08-2018, Saat: 18:09
Yenilmezler: Sonsuzluk Sa...
yazar BroserBros
09-08-2018, Saat: 18:08
İntikam: Bir Aşk Hikayesi...
yazar BroserBros
03-08-2018, Saat: 20:03
İntikam: Bir Aşk Hikayesi...
yazar BroserBros
03-08-2018, Saat: 20:02
İntikam: Bir Aşk Hikayesi...
yazar BroserBros
03-08-2018, Saat: 20:01
Taş Devri Firarda (Early ...
yazar BroserBros
02-08-2018, Saat: 16:14

 
Filmin Yayınlanma Tarihi: 2017 Belalı Tanık (2017) Türkçe Dublaj Brrip-Xvid İndir
Yazar: BroserBros - 10-08-2018, Saat: 13:31 - Forum: Brrip-Xvid - Yorum Yok

indirme türü


Bulut + Premium

vizyon tarihi


18 Ağustos 2017

Boyutlar


1,42

diller


[TR]

altyazilar


Yok [Eklenebilir]

Video Format: Avi


Audio Video Interleave (.AVI)

Video Detay


MPEG-4, 1596 Kbps, 1,32 GB

imdb puanı


6,9 / 10,0 / 140,000

süre


118 dakika

Ses Kodek: MP3


MPEG-1 Audio Layer III (MP3)

Ses Detay


128 Kbps, 2 Kanal, 108 Mb

rarsifresi


filmbol.org

Editör Puanı


7,8

Genislik Yukseklik


720x302

sürüm


h263 | Brrip-Xvid




Film Detayları

Mükemmel bir koruma olan Michael Bryce'nin yeni bir müşterisi vardır; Bir Katil! Bu görevinde Michael, uluslararası bir mahkeme de sorgulanacak olan bu tetikçinin peşinde ise devletler bile vardır. Michael'in bu görevi sizi hem Aksiyon sahnelerine, hem de komedi tarzına sürüklüyor. 

Belalı Tanık (The Hitman's Bodyguard) Filmi İmdb'den 140.000 kişi tarafından oylandı ve 6,9 puan aldı. Bu film için editör puanı 7,8 olarak belirlendi. İyi Seyirler!


Teknik Detaylar

Kod:
General
Complete name                            : The.Hitmans.BodyGuard.2017.BRRip.XviD.TR.avi
Format                                   : AVI
Format/Info                              : Audio Video Interleave
File size                                : 1.43 GiB
Duration                                 : 1 h 58 min
Overall bit rate                         : 1 737 kb/s

Video
ID                                       : 0
Format                                   : MPEG-4 Visual
Format profile                           : Simple@L5
Format settings, BVOP                    : No
Format settings, QPel                    : No
Format settings, GMC                     : No warppoints
Format settings, Matrix                  : Default (H.263)
Codec ID                                 : XVID
Codec ID/Hint                            : XviD
Duration                                 : 1 h 58 min
Bit rate                                 : 1 596 kb/s
Width                                    : 720 pixels
Height                                   : 302 pixels
Display aspect ratio                     : 2.40:1
Frame rate                               : 23.976 (24000/1001) FPS
Color space                              : YUV
Chroma subsampling                       : 4:2:0
Bit depth                                : 8 bits
Scan type                                : Progressive
Compression mode                         : Lossy
Bits/(Pixel*Frame)                       : 0.306
Stream size                              : 1.32 GiB (92%)
Writing library                          : Lavc57.89.100

Audio
ID                                       : 1
Format                                   : MPEG Audio
Format version                           : Version 1
Format profile                           : Layer 3
Format settings                          : Joint stereo / MS Stereo
Codec ID                                 : 55
Codec ID/Hint                            : MP3
Duration                                 : 1 h 58 min
Bit rate mode                            : Constant
Bit rate                                 : 128 kb/s
Channel(s)                               : 2 channels
Sampling rate                            : 48.0 kHz
Frame rate                               : 41.667 FPS (1152 SPF)
Compression mode                         : Lossy
Stream size                              : 108 MiB (7%)
Alignment                                : Aligned on interleaves
Interleave, duration                     : 24  ms (0.58 video frame)




Film Detayları


Belali Tanik

Belali Tanik

Belali Tanik

Belali Tanik

Belali Tanik


Film Fragmanı


Film Detayları

Brrip İndir


Turbobit İle İndir

Mega ile indir

Uptobox ile indir

Cloud Ru ile indir

Bu konuyu yazdır

Filmin Yayınlanma Tarihi: 2017 Belalı Tanık (2017) Türkçe Dublaj m720P İndir
Yazar: BroserBros - 10-08-2018, Saat: 13:31 - Forum: m720P - Yorum Yok

indirme türü


Bulut + Premium

vizyon tarihi


18 Ağustos 2017

Boyutlar


0,92

diller


[TR]

altyazilar


Eksik Yerler [Eklenebilir]

Video Format: Mkv


Matroska (.MKV)

Video Detay


MPEG-4, 900 Kbps, 0,96 GB

imdb puanı


6,9 / 10,0 / 140,000

süre


118 dakika

Ses Kodek: AC3


Audio Coding 3 (AC3)

Ses Detay


192 Kbps, 2 Kanal, 162 Mb

rarsifresi


filmbol.org

Editör Puanı


7,8

Genislik Yukseklik


1280x534

sürüm


x264 | m720P




Film Detayları

Mükemmel bir koruma olan Michael Bryce'nin yeni bir müşterisi vardır; Bir Katil! Bu görevinde Michael, uluslararası bir mahkeme de sorgulanacak olan bu tetikçinin peşinde ise devletler bile vardır. Michael'in bu görevi sizi hem Aksiyon sahnelerine, hem de komedi tarzına sürüklüyor. 

Belalı Tanık (The Hitman's Bodyguard) Filmi İmdb'den 140.000 kişi tarafından oylandı ve 6,9 puan aldı. Bu film için editör puanı 7,8 olarak belirlendi. İyi Seyirler!


Teknik Detaylar

Kod:
General
Complete name                            : The.Hitmans.Bodyguard.2017.m720P.x264.TR..mkv
Format                                   : Matroska
Format version                           : Version 4 / Version 2
File size                                : 925 MiB
Duration                                 : 1 h 58 min
Overall bit rate                         : 1 093 kb/s
Movie name                               : The Hitman's Bodyguard / Belalı Tanık / m720P - Filmbol.org
Encoded date                             : UTC 2018-07-17 08:56:12
Writing application                      : mkvmerge v15.0.0 ('Duel with the Devil') 64-bit
Writing library                          : libebml v1.3.5 + libmatroska v1.4.7

Video
ID                                       : 1
Format                                   : AVC
Format/Info                              : Advanced Video Codec
Format profile                           : High@L4.1
Format settings                          : CABAC / 4 Ref Frames
Format settings, CABAC                   : Yes
Format settings, ReFrames                : 4 frames
Codec ID                                 : V_MPEG4/ISO/AVC
Duration                                 : 1 h 58 min
Bit rate                                 : 900 kb/s
Width                                    : 1 280 pixels
Height                                   : 534 pixels
Display aspect ratio                     : 2.40:1
Original display aspect ratio            : 2.40:1
Frame rate mode                          : Constant
Frame rate                               : 23.976 (24000/1001) FPS
Color space                              : YUV
Chroma subsampling                       : 4:2:0
Bit depth                                : 8 bits
Scan type                                : Progressive
Bits/(Pixel*Frame)                       : 0.055
Stream size                              : 761 MiB (82%)
Title                                    : m720P - film.bol.org
Writing library                          : x264 core 148
Default                                  : Yes
Forced                                   : No

Audio
ID                                       : 2
Format                                   : AC-3
Format/Info                              : Audio Coding 3
Codec ID                                 : A_AC3
Duration                                 : 1 h 58 min
Bit rate mode                            : Constant
Bit rate                                 : 192 kb/s
Channel(s)                               : 2 channels
Channel positions                        : Front: L R
Sampling rate                            : 48.0 kHz
Frame rate                               : 31.250 FPS (1536 SPF)
Bit depth                                : 16 bits
Compression mode                         : Lossy
Stream size                              : 162 MiB (18%)
Title                                    : Türkçe - Filmbol.org
Language                                 : Turkish
Service kind                             : Complete Main
Default                                  : Yes
Forced                                   : No

Text
ID                                       : 3
Format                                   : UTF-8
Codec ID                                 : S_TEXT/UTF8
Codec ID/Info                            : UTF-8 Plain Text
Duration                                 : 1 h 50 min
Bit rate                                 : 3 b/s
Count of elements                        : 109
Stream size                              : 2.63 KiB (0%)
Title                                    : Eksik Yerler
Language                                 : Turkish
Default                                  : Yes
Forced                                   : Yes




Film Detayları


Belali Tanik

Belali Tanik

Belali Tanik

Belali Tanik

Belali Tanik


Film Fragmanı


Film Detayları

Mini 720P İndir


Turbobit İle İndir

Mega ile indir

Uptobox ile indir

Cloud Ru ile indir

Bu konuyu yazdır

Filmin Yayınlanma Tarihi: 2017 Belalı Tanık (2017) Türkçe Dublaj m1080P İndir
Yazar: BroserBros - 10-08-2018, Saat: 13:31 - Forum: m1080P - Yorum Yok

indirme türü


Bulut + Premium

vizyon tarihi


18 Ağustos 2017

Boyutlar


1,77

diller


[TR]

altyazilar


Eksik Yerler [Eklenebilir]

Video Format: Mkv


Matroska (.MKV)

Video Detay


MPEG-4, 2026 Kbps, 1,61 GB

imdb puanı


6,9 / 10,0 / 140,000

süre


118 dakika

Ses Kodek: AC3


Audio Coding 3 (AC3)

Ses Detay


192 Kbps, 2 Kanal, 162 Mb

rarsifresi


filmbol.org

Editör Puanı


7,8

Genislik Yukseklik


1920x804

sürüm


x264 | m1080P




Film Detayları

Mükemmel bir koruma olan Michael Bryce'nin yeni bir müşterisi vardır; Bir Katil! Bu görevinde Michael, uluslararası bir mahkeme de sorgulanacak olan bu tetikçinin peşinde ise devletler bile vardır. Michael'in bu görevi sizi hem Aksiyon sahnelerine, hem de komedi tarzına sürüklüyor. 

Belalı Tanık (The Hitman's Bodyguard) Filmi İmdb'den 140.000 kişi tarafından oylandı ve 6,9 puan aldı. Bu film için editör puanı 7,8 olarak belirlendi. İyi Seyirler!


Teknik Detaylar

Kod:
General
Complete name                            : The.Hitmans.Bodyguard.2017.m1080P.x264.TR.mkv
Format                                   : Matroska
Format version                           : Version 4 / Version 2
File size                                : 1.77 GiB
Duration                                 : 1 h 58 min
Overall bit rate                         : 2 142 kb/s
Movie name                               : The Hitman's Bodyguard / Belalı Tanık / m1080P - Filmbol.org
Encoded date                             : UTC 2018-07-17 09:17:02
Writing application                      : mkvmerge v15.0.0 ('Duel with the Devil') 64-bit
Writing library                          : libebml v1.3.5 + libmatroska v1.4.7

Video
ID                                       : 1
Format                                   : AVC
Format/Info                              : Advanced Video Codec
Format profile                           : High@L4.1
Format settings                          : CABAC / 5 Ref Frames
Format settings, CABAC                   : Yes
Format settings, ReFrames                : 5 frames
Codec ID                                 : V_MPEG4/ISO/AVC
Duration                                 : 1 h 58 min
Bit rate                                 : 2 026 kb/s
Width                                    : 1 920 pixels
Height                                   : 804 pixels
Display aspect ratio                     : 2.40:1
Frame rate mode                          : Constant
Frame rate                               : 23.976 (24000/1001) FPS
Color space                              : YUV
Chroma subsampling                       : 4:2:0
Bit depth                                : 8 bits
Scan type                                : Progressive
Bits/(Pixel*Frame)                       : 0.055
Stream size                              : 1.61 GiB (91%)
Title                                    : m1080P - filmbol.org
Writing library                          : x264 core 148 r2795 aaa9aa8
Default                                  : Yes
Forced                                   : No

Audio
ID                                       : 2
Format                                   : AC-3
Format/Info                              : Audio Coding 3
Codec ID                                 : A_AC3
Duration                                 : 1 h 58 min
Bit rate mode                            : Constant
Bit rate                                 : 192 kb/s
Channel(s)                               : 2 channels
Channel positions                        : Front: L R
Sampling rate                            : 48.0 kHz
Frame rate                               : 31.250 FPS (1536 SPF)
Bit depth                                : 16 bits
Compression mode                         : Lossy
Stream size                              : 162 MiB (9%)
Title                                    : Türkçe - filmbol.org
Language                                 : Turkish
Service kind                             : Complete Main
Default                                  : Yes
Forced                                   : No

Text
ID                                       : 3
Format                                   : UTF-8
Codec ID                                 : S_TEXT/UTF8
Codec ID/Info                            : UTF-8 Plain Text
Duration                                 : 1 h 50 min
Bit rate                                 : 3 b/s
Count of elements                        : 109
Stream size                              : 2.63 KiB (0%)
Title                                    : Eksik Yerler- filmbol.org
Language                                 : Turkish
Default                                  : Yes
Forced                                   : Yes




Film Detayları


Belali Tanik

Belali Tanik

Belali Tanik

Belali Tanik

Belali Tanik


Film Fragmanı


Film Detayları

Mini 1080P İndir


Turbobit İle İndir

Mega ile indir

Uptobox ile indir

Cloud Ru ile indir

Bu konuyu yazdır

Filmin Yayınlanma Tarihi: 2018 Yenilmezler: Sonsuzluk Savaşı (2018) Türkçe Dublaj Brrip-Xvid İndir
Yazar: BroserBros - 09-08-2018, Saat: 18:11 - Forum: Brrip-Xvid - Yorum Yok

indirme türü


Bulut + Premium

vizyon tarihi


27 Nisan 2018

Boyutlar


1,80

diller


[TR]

altyazilar


Yok [Eklenebilir]

Video Format: Avi


Audio Video Interleave (.AVI)

Video Detay


MPEG-4, 1598 Kbps, 1,67 GB

imdb puanı


8,7 / 10,0 / 440,000

süre


149 dakika

Ses Kodek: MP3


MPEG-1 Audio Layer III (MP3)

Ses Detay


128 Kbps, 2 Kanal, 137 Mb

rarsifresi


filmbol.org

Editör Puanı


9,0

Genislik Yukseklik


720x302

sürüm


h263 | Brrip-Xvid




Film Detayları

Dünyanın şuana kadar gördüğü en büyük tehdit yaklaşıyor, Kahramanlar ise Iron Man ve Captain America arasında çıkan tartışmalar yüzünden ikiye bölünmüş durumda. Thanos, sınırsız güç kaynağı elde etmek için gerekli son taşları almak için dünyadadır ve ancak ve ancak yenilmezler tarafından durdurulabilir. Peki bölünmüş olan Kahramanlar bu durum için birleşebilecek ve bu büyük güç'ü engelleyebilecekler mi?

Yenilmezler: Sonsuzluk Savaşı (Avengers : Infinity War) Filmi İmdb'den 440.000 kişi tarafından oylandı ve 8,7 puan aldı. Bu film için editör puanı 9,0 olarak belirlendi. İyi Seyirler!


Teknik Detaylar

Kod:
General
Complete name                            : Avengers.Infinity.War.2018.BRRip.XviD.TR.Filmbol.avi
Format                                   : AVI
Format/Info                              : Audio Video Interleave
File size                                : 1.81 GiB
Duration                                 : 2 h 29 min
Overall bit rate                         : 1 739 kb/s

Video
ID                                       : 0
Format                                   : MPEG-4 Visual
Format profile                           : Simple@L5
Format settings, BVOP                    : No
Format settings, QPel                    : No
Format settings, GMC                     : No warppoints
Format settings, Matrix                  : Default (H.263)
Codec ID                                 : XVID
Codec ID/Hint                            : XviD
Duration                                 : 2 h 29 min
Bit rate                                 : 1 598 kb/s
Width                                    : 720 pixels
Height                                   : 302 pixels
Display aspect ratio                     : 2.40:1
Frame rate                               : 23.976 (23976/1000) FPS
Color space                              : YUV
Chroma subsampling                       : 4:2:0
Bit depth                                : 8 bits
Scan type                                : Progressive
Compression mode                         : Lossy
Bits/(Pixel*Frame)                       : 0.307
Stream size                              : 1.67 GiB (92%)
Writing library                          : Lavc57.107.100

Audio
ID                                       : 1
Format                                   : MPEG Audio
Format version                           : Version 1
Format profile                           : Layer 3
Format settings                          : Joint stereo / MS Stereo
Codec ID                                 : 55
Codec ID/Hint                            : MP3
Duration                                 : 2 h 29 min
Bit rate mode                            : Constant
Bit rate                                 : 128 kb/s
Channel(s)                               : 2 channels
Sampling rate                            : 48.0 kHz
Frame rate                               : 41.667 FPS (1152 SPF)
Compression mode                         : Lossy
Stream size                              : 137 MiB (7%)
Alignment                                : Aligned on interleaves
Interleave, duration                     : 24  ms (0.58 video frame)




Film Detayları


Yenilmezler Sonsuzluk Savasi

Yenilmezler Sonsuzluk Savasi

Yenilmezler Sonsuzluk Savasi

Yenilmezler Sonsuzluk Savasi

Yenilmezler Sonsuzluk Savasi


Film Fragmanı


Film Detayları

Brrip İndir


Turbobit İle İndir

Mega ile indir

Uptobox ile indir

Cloud Ru ile indir

Bu konuyu yazdır

Filmin Yayınlanma Tarihi: 2018 Yenilmezler: Sonsuzluk Savaşı (2018) Türkçe Dublaj m720P İndir
Yazar: BroserBros - 09-08-2018, Saat: 18:09 - Forum: m720P - Yorum Yok

indirme türü


Bulut + Premium

vizyon tarihi


27 Nisan 2018

Boyutlar


1,49

diller


[TR]

altyazilar


Yok [Eklenebilir]

Video Format: Mkv


Matroska (.MKV)

Video Detay


MPEG-4, 1050 Kbps, 1,10 GB

imdb puanı


8,7 / 10,0 / 440,000

süre


149 dakika

Ses Kodek: AC3


Audio Coding 3 (AC3)

Ses Detay


384 Kbps, 6 Kanal, 410 Mb

rarsifresi


filmbol.org

Editör Puanı


9,0

Genislik Yukseklik


1280x534

sürüm


x264 | m720P




Film Detayları

Dünyanın şuana kadar gördüğü en büyük tehdit yaklaşıyor, Kahramanlar ise Iron Man ve Captain America arasında çıkan tartışmalar yüzünden ikiye bölünmüş durumda. Thanos, sınırsız güç kaynağı elde etmek için gerekli son taşları almak için dünyadadır ve ancak ve ancak yenilmezler tarafından durdurulabilir. Peki bölünmüş olan Kahramanlar bu durum için birleşebilecek ve bu büyük güç'ü engelleyebilecekler mi?

Yenilmezler: Sonsuzluk Savaşı (Avengers : Infinity War) Filmi İmdb'den 440.000 kişi tarafından oylandı ve 8,7 puan aldı. Bu film için editör puanı 9,0 olarak belirlendi. İyi Seyirler!


Teknik Detaylar

Kod:
General
Complete name                            : Avengers.Infinity.War.2018.m720p.BLURAY.x264.TR.Filmbol.mkv
Format                                   : Matroska
Format version                           : Version 4 / Version 2
File size                                : 1.50 GiB
Duration                                 : 2 h 29 min
Overall bit rate                         : 1 436 kb/s
Movie name                               : Avengers Infinity War / m720P / Filmbol.org
Encoded date                             : UTC 2018-08-09 12:50:05
Writing application                      : mkvmerge v15.0.0 ('Duel with the Devil') 64-bit
Writing library                          : libebml v1.3.5 + libmatroska v1.4.7

Video
ID                                       : 1
Format                                   : AVC
Format/Info                              : Advanced Video Codec
Format profile                           : High@L4.1
Format settings                          : CABAC / 4 Ref Frames
Format settings, CABAC                   : Yes
Format settings, ReFrames                : 4 frames
Codec ID                                 : V_MPEG4/ISO/AVC
Duration                                 : 2 h 29 min
Bit rate                                 : 1 050 kb/s
Width                                    : 1 280 pixels
Height                                   : 534 pixels
Display aspect ratio                     : 2.40:1
Original display aspect ratio            : 2.40:1
Frame rate mode                          : Constant
Frame rate                               : 23.976 (24000/1001) FPS
Color space                              : YUV
Chroma subsampling                       : 4:2:0
Bit depth                                : 8 bits
Scan type                                : Progressive
Bits/(Pixel*Frame)                       : 0.064
Stream size                              : 1.10 GiB (73%)
Title                                    : m720P - Filmbol.org
Writing library                          : x264 core 155
Default                                  : Yes
Forced                                   : No

Audio
ID                                       : 2
Format                                   : AC-3
Format/Info                              : Audio Coding 3
Codec ID                                 : A_AC3
Duration                                 : 2 h 29 min
Bit rate mode                            : Constant
Bit rate                                 : 384 kb/s
Channel(s)                               : 6 channels
Channel positions                        : Front: L C R, Side: L R, LFE
Sampling rate                            : 48.0 kHz
Frame rate                               : 31.250 FPS (1536 SPF)
Bit depth                                : 16 bits
Compression mode                         : Lossy
Stream size                              : 410 MiB (27%)
Title                                    : Türkçe - Filmbol.org
Language                                 : Turkish
Service kind                             : Complete Main
Default                                  : Yes
Forced                                   : No




Film Detayları


Yenilmezler Sonsuzluk Savasi

Yenilmezler Sonsuzluk Savasi

Yenilmezler Sonsuzluk Savasi

Yenilmezler Sonsuzluk Savasi

Yenilmezler Sonsuzluk Savasi


Film Fragmanı


Film Detayları

Mini 720P İndir


Turbobit İle İndir

Mega ile indir

Uptobox ile indir

Cloud Ru ile indir

Bu konuyu yazdır

Filmin Yayınlanma Tarihi: 2018 Yenilmezler: Sonsuzluk Savaşı (2018) Türkçe Dublaj m1080P İndir
Yazar: BroserBros - 09-08-2018, Saat: 18:08 - Forum: m1080P - Yorum Yok

indirme türü


Bulut + Premium

vizyon tarihi


27 Nisan 2018

Boyutlar


2,64

diller


[TR]

altyazilar


Yok [Eklenebilir]

Video Format: Mkv


Matroska (.MKV)

Video Detay


MPEG-4, 2150 Kbps, 2,24 GB

imdb puanı


8,7 / 10,0 / 440,000

süre


149 dakika

Ses Kodek: AC3


Audio Coding 3 (AC3)

Ses Detay


384 Kbps, 6 Kanal, 410 Mb

rarsifresi


filmbol.org

Editör Puanı


9,0

Genislik Yukseklik


1920x800

sürüm


x264 | m1080P




Film Detayları

Dünyanın şuana kadar gördüğü en büyük tehdit yaklaşıyor, Kahramanlar ise Iron Man ve Captain America arasında çıkan tartışmalar yüzünden ikiye bölünmüş durumda. Thanos, sınırsız güç kaynağı elde etmek için gerekli son taşları almak için dünyadadır ve ancak ve ancak yenilmezler tarafından durdurulabilir. Peki bölünmüş olan Kahramanlar bu durum için birleşebilecek ve bu büyük güç'ü engelleyebilecekler mi?

Yenilmezler: Sonsuzluk Savaşı (Avengers : Infinity War) Filmi İmdb'den 440.000 kişi tarafından oylandı ve 8,7 puan aldı. Bu film için editör puanı 9,0 olarak belirlendi. İyi Seyirler!


Teknik Detaylar

Kod:
General
Complete name                            : Avengers.Infinity.War.2018.m1080p.BLURAY.x264.TR.Filmbol.mkv
Format                                   : Matroska
Format version                           : Version 4 / Version 2
File size                                : 2.64 GiB
Duration                                 : 2 h 29 min
Overall bit rate                         : 2 535 kb/s
Movie name                               : Avengers Infinity War / m1080P / Filmbol.org
Encoded date                             : UTC 2018-08-09 12:27:41
Writing application                      : mkvmerge v15.0.0 ('Duel with the Devil') 64-bit
Writing library                          : libebml v1.3.5 + libmatroska v1.4.7

Video
ID                                       : 1
Format                                   : AVC
Format/Info                              : Advanced Video Codec
Format profile                           : High@L4.1
Format settings                          : CABAC / 4 Ref Frames
Format settings, CABAC                   : Yes
Format settings, ReFrames                : 4 frames
Codec ID                                 : V_MPEG4/ISO/AVC
Duration                                 : 2 h 29 min
Bit rate                                 : 2 150 kb/s
Width                                    : 1 920 pixels
Height                                   : 800 pixels
Display aspect ratio                     : 2.40:1
Frame rate mode                          : Constant
Frame rate                               : 23.976 (24000/1001) FPS
Color space                              : YUV
Chroma subsampling                       : 4:2:0
Bit depth                                : 8 bits
Scan type                                : Progressive
Bits/(Pixel*Frame)                       : 0.058
Stream size                              : 2.24 GiB (85%)
Title                                    : m1080P - filmbol.org
Writing library                          : x264 core 155
Default                                  : Yes
Forced                                   : No

Audio
ID                                       : 2
Format                                   : AC-3
Format/Info                              : Audio Coding 3
Codec ID                                 : A_AC3
Duration                                 : 2 h 29 min
Bit rate mode                            : Constant
Bit rate                                 : 384 kb/s
Channel(s)                               : 6 channels
Channel positions                        : Front: L C R, Side: L R, LFE
Sampling rate                            : 48.0 kHz
Frame rate                               : 31.250 FPS (1536 SPF)
Bit depth                                : 16 bits
Compression mode                         : Lossy
Stream size                              : 410 MiB (15%)
Title                                    : Türkçe - Filmbol.org
Language                                 : Turkish
Service kind                             : Complete Main
Default                                  : Yes
Forced                                   : No




Film Detayları


Yenilmezler Sonsuzluk Savasi

Yenilmezler Sonsuzluk Savasi

Yenilmezler Sonsuzluk Savasi

Yenilmezler Sonsuzluk Savasi

Yenilmezler Sonsuzluk Savasi


Film Fragmanı


Film Detayları

Mini 1080P İndir


Turbobit İle İndir

Mega ile indir

Uptobox ile indir

Mypcloud ile indir

Bu konuyu yazdır

Filmin Yayınlanma Tarihi: 2018 İntikam: Bir Aşk Hikayesi (Vengeance: A Love Story) Türkçe Dublaj Brrip-Xvid İndir
Yazar: BroserBros - 03-08-2018, Saat: 20:03 - Forum: Brrip-Xvid - Yorum Yok

indirme türü


Bulut + Premium

vizyon tarihi


15 Eylül 2017

Boyutlar


1,19

diller


[TR]

altyazilar


Yok [Eklenebilir]

Video Format: Avi


Audio Video Interleave (.AVI)

Video Detay


MPEG-4, 1597 Kbps, 1,10 GB

imdb puanı


5,2 / 10,0 / 5,000

süre


99 dakika

Ses Kodek: MP3


MPEG-1 Audio Layer III (MP3)

Ses Detay


128 Kbps, 2 Kanal, 90 Mb

rarsifresi


Filmbol.org

Editör Puanı


4,5

Genislik Yukseklik


720x390

sürüm


h263 | Brrip-Xvid




Film Detayları

İntikam: Bir Aşk Hikayesi (2018) Türkçe Dublaj Bluray Brrip-Xvid İndir | Kısa özet:

İntikam: Bir Aşk Hikayesi (Vengeance: A Love Story) Filmi İmdb'den 5.000 kişi tarafından oylandı ve 5,2 puan aldı. Bu film için editör puanı 4,5 olarak belirlendi. İyi Seyirler!


Teknik Detaylar

Kod:
General
Complete name                            : Vengeance.A.Love.Story.2017.BRRip.XviD.TR.avi
Format                                   : AVI
Format/Info                              : Audio Video Interleave
File size                                : 1.20 GiB
Duration                                 : 1 h 38 min
Overall bit rate                         : 1 738 kb/s

Video
ID                                       : 0
Format                                   : MPEG-4 Visual
Format profile                           : Simple@L5
Format settings, BVOP                    : No
Format settings, QPel                    : No
Format settings, GMC                     : No warppoints
Format settings, Matrix                  : Default (H.263)
Codec ID                                 : XVID
Codec ID/Hint                            : XviD
Duration                                 : 1 h 38 min
Bit rate                                 : 1 597 kb/s
Width                                    : 720 pixels
Height                                   : 390 pixels
Display aspect ratio                     : 1.85:1
Frame rate                               : 23.976 (23976/1000) FPS
Color space                              : YUV
Chroma subsampling                       : 4:2:0
Bit depth                                : 8 bits
Scan type                                : Progressive
Compression mode                         : Lossy
Bits/(Pixel*Frame)                       : 0.237
Stream size                              : 1.10 GiB (92%)
Writing library                          : Lavc57.107.100

Audio
ID                                       : 1
Format                                   : MPEG Audio
Format version                           : Version 1
Format profile                           : Layer 3
Format settings                          : Joint stereo / MS Stereo
Codec ID                                 : 55
Codec ID/Hint                            : MP3
Duration                                 : 1 h 38 min
Bit rate mode                            : Constant
Bit rate                                 : 128 kb/s
Channel(s)                               : 2 channels
Sampling rate                            : 48.0 kHz
Frame rate                               : 41.667 FPS (1152 SPF)
Compression mode                         : Lossy
Stream size                              : 90.3 MiB (7%)
Alignment                                : Aligned on interleaves
Interleave, duration                     : 24  ms (0.58 video frame)




Film Detayları


Intikam Bır ask hikayesi

Intikam Bır ask hikayesi

Intikam Bır ask hikayesi

Intikam Bır ask hikayesi

Intikam Bır ask hikayesi





Film Fragmanı


Film Detayları

Brrip İndir


Turbobit İle İndir

Mega ile indir

Uptobox ile indir

Cloud Ru ile indir

Bu konuyu yazdır

Filmin Yayınlanma Tarihi: 2018 İntikam: Bir Aşk Hikayesi (Vengeance: A Love Story) Türkçe Dublaj m720P İndir
Yazar: BroserBros - 03-08-2018, Saat: 20:02 - Forum: m720P - Yorum Yok

indirme türü


Bulut + Premium

vizyon tarihi


15 Eylül 2017

Boyutlar


0,77

diller


[TR]

altyazilar


Yok [Eklenebilir]

Video Format: Mkv


Matroska (.MKV)

Video Detay


MPEG-4, 900 Kbps, 0,63 GB

imdb puanı


5,2 / 10,0 / 5,000

süre


99 dakika

Ses Kodek: AC3


Audio Coding 3 (AC3)

Ses Detay


192 Kbps, 2 Kanal, 135 Mb

rarsifresi


Filmbol.org

Editör Puanı


4,5

Genislik Yukseklik


1280x682

sürüm


x264 | m720P




Film Detayları

İntikam: Bir Aşk Hikayesi (2018) Türkçe Dublaj Bluray Brrip-Xvid İndir | Kısa özet:

İntikam: Bir Aşk Hikayesi (Vengeance: A Love Story) Filmi İmdb'den 5.000 kişi tarafından oylandı ve 5,2 puan aldı. Bu film için editör puanı 4,5 olarak belirlendi. İyi Seyirler!


Teknik Detaylar

Kod:
General
Complete name                            : İntikam Bir Aşk Hikayesi/Vengeance.A.Love.Story.2017.m720P.x264.TR.mkv
Format                                   : Matroska
Format version                           : Version 4 / Version 2
File size                                : 771 MiB
Duration                                 : 1 h 38 min
Overall bit rate                         : 1 093 kb/s
Movie name                               : Vengeance A Love / Intikam Bir Aşk Hikayesi / m720P - Filmbol.org
Encoded date                             : UTC 2018-07-17 05:57:25
Writing application                      : mkvmerge v15.0.0 ('Duel with the Devil') 64-bit
Writing library                          : libebml v1.3.5 + libmatroska v1.4.7

Video
ID                                       : 1
Format                                   : AVC
Format/Info                              : Advanced Video Codec
Format profile                           : High@L4.1
Format settings                          : CABAC / 4 Ref Frames
Format settings, CABAC                   : Yes
Format settings, ReFrames                : 4 frames
Codec ID                                 : V_MPEG4/ISO/AVC
Duration                                 : 1 h 38 min
Bit rate                                 : 900 kb/s
Width                                    : 1 280 pixels
Height                                   : 682 pixels
Display aspect ratio                     : 1.85:1
Frame rate mode                          : Constant
Frame rate                               : 23.976 (24000/1001) FPS
Color space                              : YUV
Chroma subsampling                       : 4:2:0
Bit depth                                : 8 bits
Scan type                                : Progressive
Bits/(Pixel*Frame)                       : 0.043
Stream size                              : 635 MiB (82%)
Title                                    : m1080P - Filmbol.org
Writing library                          : x264 core 148
Encoding settings                        : cabac=1 / ref=4 / deblock=1:-1:-1 / analyse=0x3:0x133 / me=umh / subme=9 / psy=1 / psy_rd=1.00:0.15 / mixed_ref=1 / me_range=24 / chroma_me=1 / trellis=2 / 8x8dct=1 / cqm=0 / deadzone=21,11 / fast_pskip=0 / chroma_qp_offset=-3 / threads=12 / lookahead_threads=1 / sliced_threads=0 / nr=0 / decimate=1 / interlaced=0 / bluray_compat=0 / constrained_intra=0 / bframes=3 / b_pyramid=2 / b_adapt=2 / b_bias=0 / direct=3 / weightb=1 / open_gop=0 / weightp=2 / keyint=250 / keyint_min=23 / scenecut=40 / intra_refresh=0 / rc_lookahead=60 / rc=2pass / mbtree=1 / bitrate=900 / ratetol=1.0 / qcomp=0.60 / qpmin=0 / qpmax=69 / qpstep=4 / cplxblur=20.0 / qblur=0.5 / vbv_maxrate=31250 / vbv_bufsize=31250 / nal_hrd=none / filler=0 / ip_ratio=1.40 / aq=1:1.00
Default                                  : Yes
Forced                                   : No

Audio
ID                                       : 2
Format                                   : AC-3
Format/Info                              : Audio Coding 3
Codec ID                                 : A_AC3
Duration                                 : 1 h 38 min
Bit rate mode                            : Constant
Bit rate                                 : 192 kb/s
Channel(s)                               : 2 channels
Channel positions                        : Front: L R
Sampling rate                            : 48.0 kHz
Frame rate                               : 31.250 FPS (1536 SPF)
Bit depth                                : 16 bits
Compression mode                         : Lossy
Stream size                              : 135 MiB (18%)
Title                                    : Türkçe - Filmbol.org
Language                                 : Turkish
Service kind                             : Complete Main
Default                                  : Yes
Forced                                   : No




Film Detayları


Intikam Bır ask hikayesi

Intikam Bır ask hikayesi

Intikam Bır ask hikayesi

Intikam Bır ask hikayesi

Intikam Bır ask hikayesi





Film Fragmanı


Film Detayları

Mini 720P İndir


Turbobit İle İndir

Mega ile indir

Uptobox ile indir

Cloud Ru ile indir

Bu konuyu yazdır

Filmin Yayınlanma Tarihi: 2018 İntikam: Bir Aşk Hikayesi (Vengeance: A Love Story) Türkçe Dublaj m1080P İndir
Yazar: BroserBros - 03-08-2018, Saat: 20:01 - Forum: m1080P - Yorum Yok

indirme türü


Bulut + Premium

vizyon tarihi


15 Eylül 2017

Boyutlar


1,54

diller


[TR]

altyazilar


Yok [Eklenebilir]

Video Format: Mkv


Matroska (.MKV)

Video Detay


MPEG-4, 2050 Kbps, 1,41 GB

imdb puanı


5,2 / 10,0 / 5,000

süre


99 dakika

Ses Kodek: AC3


Audio Coding 3 (AC3)

Ses Detay


192 Kbps, 2 Kanal, 135 Mb

rarsifresi


Filmbol.org

Editör Puanı


4,5

Genislik Yukseklik


1920x1024

sürüm


x264 | m1080P




Film Detayları

İntikam: Bir Aşk Hikayesi (2018) Türkçe Dublaj Bluray Brrip-Xvid İndir | Kısa özet:

İntikam: Bir Aşk Hikayesi (Vengeance: A Love Story) Filmi İmdb'den 5.000 kişi tarafından oylandı ve 5,2 puan aldı. Bu film için editör puanı 4,5 olarak belirlendi. İyi Seyirler!


Teknik Detaylar

Kod:
General
Complete name                            : /root/Desktop/İntikam Bir Aşk Hikayesi/Vengeance.A.Love.Story.2017.m1080P.x264.TR.mkv
Format                                   : Matroska
Format version                           : Version 4 / Version 2
File size                                : 1.54 GiB
Duration                                 : 1 h 38 min
Overall bit rate                         : 2 243 kb/s
Movie name                               : Vengeance A Love Stroy / Intikam Bir Aşk Hikayesi - Filmbol.org
Encoded date                             : UTC 2018-07-17 06:00:26
Writing application                      : mkvmerge v15.0.0 ('Duel with the Devil') 64-bit
Writing library                          : libebml v1.3.5 + libmatroska v1.4.7

Video
ID                                       : 1
Format                                   : AVC
Format/Info                              : Advanced Video Codec
Format profile                           : High@L4.1
Format settings                          : CABAC / 4 Ref Frames
Format settings, CABAC                   : Yes
Format settings, ReFrames                : 4 frames
Codec ID                                 : V_MPEG4/ISO/AVC
Duration                                 : 1 h 38 min
Bit rate                                 : 2 050 kb/s
Width                                    : 1 920 pixels
Height                                   : 1 024 pixels
Display aspect ratio                     : 1.85:1
Frame rate mode                          : Constant
Frame rate                               : 23.976 (24000/1001) FPS
Color space                              : YUV
Chroma subsampling                       : 4:2:0
Bit depth                                : 8 bits
Scan type                                : Progressive
Bits/(Pixel*Frame)                       : 0.043
Stream size                              : 1.41 GiB (91%)
Title                                    : m1080P - filmbol.org
Writing library                          : x264 core 148
Default                                  : Yes
Forced                                   : No

Audio
ID                                       : 2
Format                                   : AC-3
Format/Info                              : Audio Coding 3
Codec ID                                 : A_AC3
Duration                                 : 1 h 38 min
Bit rate mode                            : Constant
Bit rate                                 : 192 kb/s
Channel(s)                               : 2 channels
Channel positions                        : Front: L R
Sampling rate                            : 48.0 kHz
Frame rate                               : 31.250 FPS (1536 SPF)
Bit depth                                : 16 bits
Compression mode                         : Lossy
Stream size                              : 135 MiB (9%)
Title                                    : Türkçe - Filmbol.org
Language                                 : Turkish
Service kind                             : Complete Main
Default                                  : Yes
Forced                                   : No




Film Detayları


Intikam Bır ask hikayesi

Intikam Bır ask hikayesi

Intikam Bır ask hikayesi

Intikam Bır ask hikayesi

Intikam Bır ask hikayesi





Film Fragmanı


Film Detayları

Mini 1080P İndir


Turbobit İle İndir

Mega ile indir

Uptobox ile indir

Cloud Ru ile indir

Bu konuyu yazdır

Filmin Yayınlanma Tarihi: 2018 Taş Devri Firarda (Early Man) Türkçe Dublaj Brrip-Xvid İndir
Yazar: BroserBros - 02-08-2018, Saat: 16:14 - Forum: Brrip-Xvid - Yorum Yok

indirme türü


Bulut + Premium

vizyon tarihi


13 Nisan 2018

Boyutlar


1,06

diller


[TR]

altyazilar


Yok [Eklenebilir]

Video Format: Avi


Audio Video Interleave (.AVI)

Video Detay


MPEG-4,1592 Kbps, 1,01 GB

imdb puanı


6,1 / 10,0 / 10,000

süre


89 dakika

Ses Kodek: MP3


MPEG-1 Audio Layer III (MP3)

Ses Detay


184 Kbps, 2 Kanal, 81 Mb

rarsifresi


Filmbol.org

Editör Puanı


5,9

Genislik Yukseklik


720x392

sürüm


h263 | Brrip-Xvid




Film Detayları

Dünya değişmiş, Bronz Çağı’na geçilmiştir. Fakat sevimli dostları ile birlikte mutlu bir şekilde vadilerinde yaşayan Taş Devri kabilesinin bu durumdan haberi yoktur. Üstelik kral Lord Nooth vadilerini de ellerinden almıştır. Kabilesini kurtarmaya kararlı olan genç mağara adamı Dug bir futbol maçı düzenleyerek evini geri kazanmayı planlar. Krala meydan okuyan Dug ve dostları bu sayede takım olmanın ve dostluğun önemini anlar.

Taş Devri Firarda (Early Man) Filmi İmdb'den 10.000 kişi tarafından oylandı ve 6,1 puan aldı. Bu film için editör puanı 5,9 olarak belirlendi. İyi Seyirler!


Teknik Detaylar

Kod:
General
Complete name                            : Early.Man.2018.BRRip.XviD.TR.avi
Format                                   : AVI
Format/Info                              : Audio Video Interleave
File size                                : 1.07 GiB
Duration                                 : 1 h 28 min
Overall bit rate                         : 1 733 kb/s

Video
ID                                       : 0
Format                                   : MPEG-4 Visual
Format profile                           : Simple@L5
Format settings, BVOP                    : No
Format settings, QPel                    : No
Format settings, GMC                     : No warppoints
Format settings, Matrix                  : Default (H.263)
Codec ID                                 : XVID
Codec ID/Hint                            : XviD
Duration                                 : 1 h 28 min
Bit rate                                 : 1 592 kb/s
Width                                    : 720 pixels
Height                                   : 392 pixels
Display aspect ratio                     : 1.85:1
Frame rate                               : 23.976 (24000/1001) FPS
Color space                              : YUV
Chroma subsampling                       : 4:2:0
Bit depth                                : 8 bits
Scan type                                : Progressive
Compression mode                         : Lossy
Bits/(Pixel*Frame)                       : 0.235
Stream size                              : 1 010 MiB (92%)
Writing library                          : Lavc57.107.100

Audio
ID                                       : 1
Format                                   : MPEG Audio
Format version                           : Version 1
Format profile                           : Layer 3
Format settings                          : Joint stereo / MS Stereo
Codec ID                                 : 55
Codec ID/Hint                            : MP3
Duration                                 : 1 h 28 min
Bit rate mode                            : Constant
Bit rate                                 : 128 kb/s
Channel(s)                               : 2 channels
Sampling rate                            : 48.0 kHz
Frame rate                               : 41.667 FPS (1152 SPF)
Compression mode                         : Lossy
Stream size                              : 81.2 MiB (7%)
Alignment                                : Aligned on interleaves
Interleave, duration                     : 24  ms (0.58 video frame)




Film Detayları


Tas Devri Firarda

Tas Devri Firarda

Tas Devri Firarda

Tas Devri Firarda

Tas Devri Firarda



Film Fragmanı


Film Detayları

Brrip İndir


Turbobit İle İndir

Mega ile indir

Uptobox ile indir

Cloud Ru ile indir

Bu konuyu yazdır