Hoşgeldin, Ziyaretçi: Giriş Yap Üye Ol


Hoşgeldin, Ziyaretçi
Sitemizden yararlanabilmek için Kayıt olmalısınız.

Kullanıcı Adı/E-Posta:
  

Şifreniz:
  





Forumda Ara

(Gelişmiş Arama)

Forum İstatistikleri
» Toplam Üyeler: 363
» Son Üye: VivianRans
» Toplam Konular: 734
» Toplam Yorumlar: 754

Detaylı İstatistikler

Kimler Çevrimiçi
Toplam: 12 kullanıcı aktif
» 0 Kayıtlı
» 12 Ziyaretçi

Son Aktiviteler
Cafe Society Türkçe Dubla...
yazar seaneren
15-05-2018, Saat: 21:38
Maymunlar Cehennemi: Başl...
yazar Selezans
07-03-2018, Saat: 16:16
Forum Kuralları
yazar mhmtdrn
02-03-2018, Saat: 22:14
Yüzüklerin Efendisi: Yüzü...
yazar BroserBros
24-01-2018, Saat: 16:27
Labirent: Ölümcül Kaçış (...
yazar atim1234
01-01-2018, Saat: 22:25
Thor Türkçe Dublaj m1080P...
yazar BroserBros
15-12-2017, Saat: 19:02
Forum Kuralları
yazar Deha
20-09-2017, Saat: 07:18
Yağmacılar (Marauders) Tü...
yazar BroserBros
22-07-2017, Saat: 12:48
Yağmacılar (Marauders) Tü...
yazar BroserBros
22-07-2017, Saat: 12:44
Yağmacılar (Marauders) Tü...
yazar BroserBros
22-07-2017, Saat: 12:34

 
Filmin Yayınlanma Tarihi: 2016 Yağmacılar (Marauders) Türkçe Dublaj Brrip-Xvid İndir
Yazar: BroserBros - 22-07-2017, Saat: 12:48 - Forum: Brrip-Xvid - Yorum Yok

rarsifresi


filmbol.org

indirme türü


Bulut + Premium

vizyon tarihi


01 Temmuz 2016

Boyutlar


1,13GB

diller


[TR]

altyazilar


Yok [Eklenebilir]

Video Format: Avi


Audio Video Interleave (.AVI)

Video Detay


MPEG-4, 1370 Kbps, 1,02 GB

imdb puanı


5,5 / 10,0 / 11,000

süre


107 dakika

Ses Kodek: MP3


MPEG-1 Audio Layer III (MP3)

Ses Detay


128 Kbps, 2 Kanal, 99 Mb

Editör Puanı


5,5

Genislik Yukseklik


1280x536

sürüm


h263 | Brrip-Xvid




Film Detayları

Bir banka, acımasız bir şekilde soyulduktan sonra, olası kanıtlar banka müdürünü ve güçlü müşterilerine işaret ediyor. FBI davayı derinleştirdiğinde aslında davanın daha karmaşık olduğu ortaya çıkıyor

Teknik Detaylar

Kod:
General
Format                                   : AVI
Format/Info                              : Audio Video Interleave
File size                                : 1.13 GiB
Duration                                 : 1h 47mn
Overall bit rate                         : 1 507 Kbps

Video
ID                                       : 0
Format                                   : MPEG-4 Visual
Format profile                           : Advanced Simple@L5
Format settings, BVOP                    : 2
Format settings, QPel                    : No
Format settings, GMC                     : No warppoints
Format settings, Matrix                  : Custom
Codec ID                                 : XVID
Codec ID/Hint                            : XviD
Duration                                 : 1h 47mn
Bit rate                                 : 1 370 Kbps
Width                                    : 720 pixels
Height                                   : 304 pixels
Display aspect ratio                     : 2.35:1
Frame rate                               : 23.976 fps
Color space                              : YUV
Chroma subsampling                       : 4:2:0
Bit depth                                : 8 bits
Scan type                                : Progressive
Compression mode                         : Lossy
Bits/(Pixel*Frame)                       : 0.261
Stream size                              : 1.02 GiB (91%)
Writing library                          : XviD 1.2.1 (UTC 2008-12-04)

Audio
ID                                       : 1
Format                                   : MPEG Audio
Format version                           : Version 1
Format profile                           : Layer 3
Mode                                     : Joint stereo
Mode extension                           : MS Stereo
Codec ID                                 : 55
Codec ID/Hint                            : MP3
Duration                                 : 1h 47mn
Source duration                          : 1h 47mn
Bit rate mode                            : Constant
Bit rate                                 : 128 Kbps
Channel(s)                               : 2 channels
Sampling rate                            : 48.0 KHz
Compression mode                         : Lossy
Stream size                              : 98.1 MiB (8%)
Alignment                                : Aligned on interleaves
Interleave, duration                     : 42 ms (1.00 video frame)
Writing library                          : LAME3.99.5



Film Detayları


Marauders

Marauders

Marauders

Marauders

Marauders


Film Fragmanı


Film Detayları

Brrip İndir


Turbobit İle İndir

Mega ile indir

Uptobox ile indir

Cloud Ru ile indir

Bu konuyu yazdır

Filmin Yayınlanma Tarihi: 2016 Yağmacılar (Marauders) Türkçe Dublaj m720P İndir
Yazar: BroserBros - 22-07-2017, Saat: 12:44 - Forum: m720P - Yorum Yok

rarsifresi


filmbol.org

indirme türü


Bulut + Premium

vizyon tarihi


01 Temmuz 2016

Boyutlar


0,89GB

diller


[TR]

altyazilar


Yok [Eklenebilir]

Video Format: Mkv


Matroska (.MKV)

Video Detay


MPEG-4, 949 Kbps, 0,71 GB

imdb puanı


5,5 / 10,0 / 11,000

süre


107 dakika

Ses Kodek: AC3


Audio Coding 3 (AC3)

Ses Detay


224 Kbps, 2 Kanal, 172 Mb

Editör Puanı


5,5

Genislik Yukseklik


1280x536

sürüm


x264 | m720P




Film Detayları

Bir banka, acımasız bir şekilde soyulduktan sonra, olası kanıtlar banka müdürünü ve güçlü müşterilerine işaret ediyor. FBI davayı derinleştirdiğinde aslında davanın daha karmaşık olduğu ortaya çıkıyor

Teknik Detaylar

Kod:
General
Format                                   : Matroska
Format version                           : Version 4 / Version 2
File size                                : 900 MiB
Duration                                 : 1h 47mn
Overall bit rate                         : 1 174 Kbps
Movie name                               : Marauders - Filmbol.org

Video
ID                                       : 1
Format                                   : AVC
Format/Info                              : Advanced Video Codec
Format profile                           : High@L4.1
Format settings, CABAC                   : Yes
Format settings, ReFrames                : 5 frames
Codec ID                                 : V_MPEG4/ISO/AVC
Duration                                 : 1h 47mn
Bit rate                                 : 949 Kbps
Width                                    : 1 280 pixels
Height                                   : 536 pixels
Display aspect ratio                     : 2.40:1
Frame rate mode                          : Constant
Frame rate                               : 23.976 fps
Color space                              : YUV
Chroma subsampling                       : 4:2:0
Bit depth                                : 8 bits
Scan type                                : Progressive
Bits/(Pixel*Frame)                       : 0.058
Stream size                              : 710 MiB (79%)
Title                                    : m720P - Filmbol.org
Writing library                          : x264 core 148 r2638 7599210
Default                                  : Yes
Forced                                   : No
Color primaries                          : BT.709
Matrix coefficients                      : BT.709

Audio
ID                                       : 2
Format                                   : AC-3
Format/Info                              : Audio Coding 3
Mode extension                           : CM (complete main)
Format settings, Endianness              : Big
Codec ID                                 : A_AC3
Duration                                 : 1h 47mn
Bit rate mode                            : Constant
Bit rate                                 : 224 Kbps
Channel(s)                               : 2 channels
Channel positions                        : Front: L R
Sampling rate                            : 48.0 KHz
Bit depth                                : 16 bits
Compression mode                         : Lossy
Stream size                              : 172 MiB (19%)
Title                                    : Türkçe - Filmbol.org
Language                                 : Turkish
Default                                  : Yes
Forced                                   : No



Film Detayları


Marauders

Marauders

Marauders

Marauders

Marauders


Film Fragmanı


Film Detayları

Mini 720P İndir


Turbobit İle İndir

Mega ile indir

Uptobox ile indir

Cloud Ru ile indir

Bu konuyu yazdır

Filmin Yayınlanma Tarihi: 2016 Yağmacılar (Marauders) Türkçe Dublaj m1080P İndir
Yazar: BroserBros - 22-07-2017, Saat: 12:34 - Forum: m1080P - Yorum Yok

rarsifresi


filmbol.org

indirme türü


Bulut + Premium

vizyon tarihi


01 Temmuz 2016

Boyutlar


1,66GB

diller


[TR]

altyazilar


Yok [Eklenebilir]

Video Format: Mkv


Matroska (.MKV)

Video Detay


MPEG-4, 1999 Kbps, 1,46 GB

imdb puanı


5,5 / 10,0 / 11,000

süre


107 dakika

Ses Kodek: AC3


Audio Coding 3 (AC3)

Ses Detay


224 Kbps, 2 Kanal, 172 Mb

Editör Puanı


5,5

Genislik Yukseklik


1920x808

sürüm


x264 | m1080P




Film Detayları

Bir banka, acımasız bir şekilde soyulduktan sonra, olası kanıtlar banka müdürünü ve güçlü müşterilerine işaret ediyor. FBI davayı derinleştirdiğinde aslında davanın daha karmaşık olduğu ortaya çıkıyor

Teknik Detaylar

Kod:
General
Format                                   : Matroska
Format version                           : Version 4 / Version 2
File size                                : 1.66 GiB
Duration                                 : 1h 47mn
Overall bit rate                         : 2 221 Kbps
Movie name                               : Marauders - Filmbol.org

Video
ID                                       : 1
Format                                   : AVC
Format/Info                              : Advanced Video Codec
Format profile                           : High@L4.1
Format settings, CABAC                   : Yes
Format settings, ReFrames                : 5 frames
Codec ID                                 : V_MPEG4/ISO/AVC
Duration                                 : 1h 47mn
Bit rate                                 : 1 999 Kbps
Width                                    : 1 920 pixels
Height                                   : 808 pixels
Display aspect ratio                     : 2.40:1
Frame rate mode                          : Constant
Frame rate                               : 23.976 fps
Color space                              : YUV
Chroma subsampling                       : 4:2:0
Bit depth                                : 8 bits
Scan type                                : Progressive
Bits/(Pixel*Frame)                       : 0.054
Stream size                              : 1.46 GiB (88%)
Title                                    : m1080P - Filmbol.org
Writing library                          : x264 core 148 r2638 7599210
Default                                  : Yes
Forced                                   : No
Color primaries                          : BT.709
Matrix coefficients                      : BT.709

Audio
ID                                       : 2
Format                                   : AC-3
Format/Info                              : Audio Coding 3
Mode extension                           : CM (complete main)
Format settings, Endianness              : Big
Codec ID                                 : A_AC3
Duration                                 : 1h 47mn
Bit rate mode                            : Constant
Bit rate                                 : 224 Kbps
Channel(s)                               : 2 channels
Channel positions                        : Front: L R
Sampling rate                            : 48.0 KHz
Bit depth                                : 16 bits
Compression mode                         : Lossy
Stream size                              : 172 MiB (10%)
Title                                    : Türkçe - Filmbol.org
Language                                 : Turkish
Default                                  : Yes
Forced                                   : No



Film Detayları


Marauders

Marauders

Marauders

Marauders

Marauders


Film Fragmanı


Film Detayları

Mini 1080P İndir


Turbobit İle İndir

Mega ile indir

Uptobox ile indir

Cloud Ru ile indir

Bu konuyu yazdır

Filmin Yayınlanma Tarihi: 2016 Kaptan Fantastik (Captain Fantastic) Türkçe Dublaj Brrip-Xvid İndir
Yazar: BroserBros - 10-03-2017, Saat: 18:00 - Forum: Brrip-Xvid - Yorum Yok

indirme türü


Bulut + Premium

vizyon tarihi


11 Kasım 2016

Boyutlar


1,11GB

diller


[TR]

altyazilar


Yok [Eklenebilir]

Video Format: Avi


Audio Video Interleave (.AVI)

Video Detay


MPEG-4, 1199 Kbps, 1,00 GB

imdb puanı


7,9 / 10,0 / 90,000

süre


118 dakika

Ses Kodek: MP3


MPEG-1 Audio Layer III (MP3)

Ses Detay


128 Kbps, 2 Kanal, 109 Mb

rarsifresi


filmbol.org

Editör Puanı


7,5

Genislik Yukseklik


720x300

sürüm


h263 | Brrip-Xvid




Film Detayları

Ben Cash, ABD’nin Kuzeybatı Pasifik ormanlarında, 6 çocuğu ile beraber bir kabinde medeniyetten izole bir hayat yaşamaktadır. Bu izole ortamda ebeveynlik, kendi doğrularını yaratmıştır ve çocuklar moderniteye karşı bir bağışıklık kazanamamışlardır. Ben, kendini çocuklarını büyük bir titizlikle hem fiziksel hem de entelektüel olarak yetiştirmeye adamıştır. Fakat karısı Leslie’nin ölümü ormandaki "düzeni" de sarsar. Zira çocuklar annelerinin cenazesine katılmak için şehre ve medeniyete dönmek isterler. Ev eğitimi ile yetiştirdiği çocuklarının hem annesi hem babası olan Ben için bundan sonrası ormandaki hayattan daha zor olacaktır...

Viggo Mortensen başrolde olduğu etkileyici yapımın yönetmeni ve senaristi ise Matt Ross.

Teknik Detaylar

Kod:
General
Format                                   : AVI
Format/Info                              : Audio Video Interleave
File size                                : 1.12 GiB
Duration                                 : 1h 59mn
Overall bit rate                         : 1 336 Kbps

Video
ID                                       : 0
Format                                   : MPEG-4 Visual
Format profile                           : Advanced Simple@L5
Format settings, BVOP                    : 2
Format settings, QPel                    : No
Format settings, GMC                     : No warppoints
Format settings, Matrix                  : Default (H.263)
Muxing mode                              : Packed bitstream
Codec ID                                 : XVID
Codec ID/Hint                            : XviD
Duration                                 : 1h 59mn
Bit rate                                 : 1 199 Kbps
Width                                    : 720 pixels
Height                                   : 300 pixels
Display aspect ratio                     : 2.40:1
Frame rate                               : 23.976 fps
Color space                              : YUV
Chroma subsampling                       : 4:2:0
Bit depth                                : 8 bits
Scan type                                : Progressive
Compression mode                         : Lossy
Bits/(Pixel*Frame)                       : 0.232
Stream size                              : 1.00 GiB (90%)
Writing library                          : XviD 66

Audio
ID                                       : 1
Format                                   : MPEG Audio
Format version                           : Version 1
Format profile                           : Layer 3
Mode                                     : Joint stereo
Mode extension                           : MS Stereo
Codec ID                                 : 55
Codec ID/Hint                            : MP3
Duration                                 : 1h 59mn
Source duration                          : 1h 59mn
Bit rate mode                            : Constant
Bit rate                                 : 128 Kbps
Channel(s)                               : 2 channels
Sampling rate                            : 48.0 KHz
Compression mode                         : Lossy
Stream size                              : 109 MiB (10%)
Alignment                                : Aligned on interleaves
Interleave, duration                     : 42 ms (1.00 video frame)
Writing library                          : LAME3.99.5



Film Detayları


Kaptan Fantastik

Kaptan Fantastik

Kaptan Fantastik

Kaptan Fantastik

Kaptan Fantastik


Film Fragmanı


Film Detayları

Brrip İndir


Turbobit İle İndir

Mega ile indir

Uptobox ile indir

Cloud Ru ile indir

Bu konuyu yazdır

Filmin Yayınlanma Tarihi: 2016 Kaptan Fantastik (Captain Fantastic) Türkçe Dublaj m720P İndir
Yazar: BroserBros - 10-03-2017, Saat: 18:00 - Forum: m720P - Yorum Yok

indirme türü


Bulut + Premium

vizyon tarihi


11 Kasım 2016

Boyutlar


0,96GB

diller


[TR]

altyazilar


Yok [Eklenebilir]

Video Format: Mkv


Matroska (.MKV)

Video Detay


MPEG-4, 900 Kbps, 0,75 GB

imdb puanı


7,9 / 10,0 / 90,000

süre


118 dakika

Ses Kodek: AC3


Audio Coding 3 (AC3)

Ses Detay


224 Kbps, 2 Kanal, 191 Mb

rarsifresi


filmbol.org

Editör Puanı


7,5

Genislik Yukseklik


1280x522

sürüm


x264 | m720P




Film Detayları

Ben Cash, ABD’nin Kuzeybatı Pasifik ormanlarında, 6 çocuğu ile beraber bir kabinde medeniyetten izole bir hayat yaşamaktadır. Bu izole ortamda ebeveynlik, kendi doğrularını yaratmıştır ve çocuklar moderniteye karşı bir bağışıklık kazanamamışlardır. Ben, kendini çocuklarını büyük bir titizlikle hem fiziksel hem de entelektüel olarak yetiştirmeye adamıştır. Fakat karısı Leslie’nin ölümü ormandaki "düzeni" de sarsar. Zira çocuklar annelerinin cenazesine katılmak için şehre ve medeniyete dönmek isterler. Ev eğitimi ile yetiştirdiği çocuklarının hem annesi hem babası olan Ben için bundan sonrası ormandaki hayattan daha zor olacaktır...

Viggo Mortensen başrolde olduğu etkileyici yapımın yönetmeni ve senaristi ise Matt Ross.

Teknik Detaylar

Kod:
General
Format                                   : Matroska
Format version                           : Version 4 / Version 2
File size                                : 962 MiB
Duration                                 : 1h 59mn
Overall bit rate                         : 1 126 Kbps
Movie name                               : Captain Fantastic - Filmbol.org

Video
ID                                       : 1
Format                                   : AVC
Format/Info                              : Advanced Video Codec
Format profile                           : High@L4.1
Format settings, CABAC                   : Yes
Format settings, ReFrames                : 4 frames
Codec ID                                 : V_MPEG4/ISO/AVC
Duration                                 : 1h 59mn
Bit rate                                 : 900 Kbps
Width                                    : 1 280 pixels
Height                                   : 522 pixels
Display aspect ratio                     : 2.40:1
Original display aspect ratio            : 2.40:1
Frame rate mode                          : Constant
Frame rate                               : 23.976 fps
Color space                              : YUV
Chroma subsampling                       : 4:2:0
Bit depth                                : 8 bits
Scan type                                : Progressive
Bits/(Pixel*Frame)                       : 0.056
Stream size                              : 751 MiB (78%)
Title                                    : m720P - Filmbol.org
Writing library                          : x264 core 148
Default                                  : Yes
Forced                                   : No

Audio
ID                                       : 2
Format                                   : AC-3
Format/Info                              : Audio Coding 3
Mode extension                           : CM (complete main)
Format settings, Endianness              : Big
Codec ID                                 : A_AC3
Duration                                 : 1h 59mn
Bit rate mode                            : Constant
Bit rate                                 : 224 Kbps
Channel(s)                               : 2 channels
Channel positions                        : Front: L R
Sampling rate                            : 48.0 KHz
Bit depth                                : 16 bits
Compression mode                         : Lossy
Stream size                              : 191 MiB (20%)
Title                                    : Türkçe - Filmbol.org
Language                                 : Turkish
Default                                  : Yes
Forced                                   : No



Film Detayları


Kaptan Fantastik

Kaptan Fantastik

Kaptan Fantastik

Kaptan Fantastik

Kaptan Fantastik


Film Fragmanı


Film Detayları

Mini 720P İndir


Turbobit İle İndir

Mega ile indir

Uptobox ile indir

Cloud Ru ile indir

Bu konuyu yazdır

Filmin Yayınlanma Tarihi: 2016 Kaptan Fantastik (Captain Fantastic) Türkçe Dublaj m1080P İndir
Yazar: BroserBros - 10-03-2017, Saat: 18:00 - Forum: m1080P - Yorum Yok

indirme türü


Bulut + Premium

vizyon tarihi


11 Kasım 2016

Boyutlar


1,90GB

diller


[TR]

altyazilar


Yok [Eklenebilir]

Video Format: Mkv


Matroska (.MKV)

Video Detay


MPEG-4, 2050 Kbps, 1,67 GB

imdb puanı


7,9 / 10,0 / 90,000

süre


118 dakika

Ses Kodek: AC3


Audio Coding 3 (AC3)

Ses Detay


224 Kbps, 2 Kanal, 191 Mb

rarsifresi


filmbol.org

Editör Puanı


7,5

Genislik Yukseklik


1920x784

sürüm


x264 | m1080P




Film Detayları

Ben Cash, ABD’nin Kuzeybatı Pasifik ormanlarında, 6 çocuğu ile beraber bir kabinde medeniyetten izole bir hayat yaşamaktadır. Bu izole ortamda ebeveynlik, kendi doğrularını yaratmıştır ve çocuklar moderniteye karşı bir bağışıklık kazanamamışlardır. Ben, kendini çocuklarını büyük bir titizlikle hem fiziksel hem de entelektüel olarak yetiştirmeye adamıştır. Fakat karısı Leslie’nin ölümü ormandaki "düzeni" de sarsar. Zira çocuklar annelerinin cenazesine katılmak için şehre ve medeniyete dönmek isterler. Ev eğitimi ile yetiştirdiği çocuklarının hem annesi hem babası olan Ben için bundan sonrası ormandaki hayattan daha zor olacaktır...

Viggo Mortensen başrolde olduğu etkileyici yapımın yönetmeni ve senaristi ise Matt Ross.

Teknik Detaylar

Kod:
General
Format                                   : Matroska
Format version                           : Version 4 / Version 2
File size                                : 1.90 GiB
Duration                                 : 1h 59mn
Overall bit rate                         : 2 276 Kbps
Movie name                               : Captain Fantastic - Filmbol.org

Video
ID                                       : 1
Format                                   : AVC
Format/Info                              : Advanced Video Codec
Format profile                           : High@L4.1
Format settings, CABAC                   : Yes
Format settings, ReFrames                : 4 frames
Codec ID                                 : V_MPEG4/ISO/AVC
Duration                                 : 1h 59mn
Bit rate                                 : 2 050 Kbps
Width                                    : 1 920 pixels
Height                                   : 784 pixels
Display aspect ratio                     : 2.40:1
Frame rate mode                          : Constant
Frame rate                               : 23.976 fps
Color space                              : YUV
Chroma subsampling                       : 4:2:0
Bit depth                                : 8 bits
Scan type                                : Progressive
Bits/(Pixel*Frame)                       : 0.057
Stream size                              : 1.67 GiB (88%)
Title                                    : m1080P - Filmbol.org
Writing library                          : x264 core 148
Default                                  : Yes
Forced                                   : No

Audio
ID                                       : 2
Format                                   : AC-3
Format/Info                              : Audio Coding 3
Mode extension                           : CM (complete main)
Format settings, Endianness              : Big
Codec ID                                 : A_AC3
Duration                                 : 1h 59mn
Bit rate mode                            : Constant
Bit rate                                 : 224 Kbps
Channel(s)                               : 2 channels
Channel positions                        : Front: L R
Sampling rate                            : 48.0 KHz
Bit depth                                : 16 bits
Compression mode                         : Lossy
Stream size                              : 191 MiB (10%)
Title                                    : Türkçe - Filmbol.org
Language                                 : Turkish
Default                                  : Yes
Forced                                   : No



Film Detayları


Kaptan Fantastik

Kaptan Fantastik

Kaptan Fantastik

Kaptan Fantastik

Kaptan Fantastik


Film Fragmanı


Film Detayları

Mini 1080P İndir


Turbobit İle İndir

Mega ile indir

Uptobox ile indir

Cloud Ru ile indir

Bu konuyu yazdır

Filmin Yayınlanma Tarihi: 2015 Küçük Kız Kardeşim (Our Little Sister) Türkçe Dublaj Brrip-Xvid İndir
Yazar: BroserBros - 07-03-2017, Saat: 21:22 - Forum: Brrip-Xvid - Yorum Yok

indirme türü


Bulut + Premium

vizyon tarihi


13 Haziran 2015

Boyutlar


1,29GB

diller


[TR]

altyazilar


Yok [Eklenebilir]

Video Format: Avi


Audio Video Interleave (.AVI)

Video Detay


MPEG-4, 1338 Kbps, 1,19 GB

imdb puanı


7,6 / 10,0 / 6,000

süre


128 dakika

Ses Kodek: MP3


MPEG-1 Audio Layer III (MP3)

Ses Detay


128 Kbps, 2 Kanal, 116 Mb

rarsifresi


filmbol.org

Editör Puanı


6,3

Genislik Yukseklik


720x390

sürüm


h263 | Brrip-Xvid




Film Detayları

Çağdaş Japon sinemasının ustası Kore-eda’nın beklenen filmi Our Little Sister, Yoshida Akimi’nin aynı adlı çok satan çizgi romanından uyarlandı. Büyükannelerine ait bir evde oturan üç yetişkin kız kardeş, yıllardır görmedikleri babalarının cenazesinde onlu yaşlarındaki utangaç üvey kız kardeşleri Suzu ile tanışırlar. Kızı çok sevip yanlarına alan kız kardeşler, ailelerine yeni katılan bu kızla gitgide yakınlaşmaya başlarlar. Klasik Japon tarzını benimseyen bu sakin ve dokunaklı aile dramı, Cannes’da Altın Palmiye için yarışmıştı. Filmin başrollerinde Haruka Ayase, Masami Nagasawa, Kaho, Takafumi Ikeda yer alıyor.

Teknik Detaylar


Kod:
General
Format                                   : AVI
Format/Info                              : Audio Video Interleave
File size                                : 1.31 GiB
Duration                                 : 2h 6mn
Overall bit rate                         : 1 476 Kbps

Video
ID                                       : 0
Format                                   : MPEG-4 Visual
Format profile                           : Simple@L1
Format settings, BVOP                    : No
Format settings, QPel                    : No
Format settings, GMC                     : No warppoints
Format settings, Matrix                  : Default (H.263)
Codec ID                                 : FMP4
Duration                                 : 2h 6mn
Bit rate                                 : 1 338 Kbps
Width                                    : 720 pixels
Height                                   : 390 pixels
Display aspect ratio                     : 1.85:1
Frame rate                               : 23.976 fps
Color space                              : YUV
Chroma subsampling                       : 4:2:0
Bit depth                                : 8 bits
Scan type                                : Progressive
Compression mode                         : Lossy
Bits/(Pixel*Frame)                       : 0.199
Stream size                              : 1.19 GiB (91%)
Writing library                          : Lavc56.41.100

Audio
ID                                       : 1
Format                                   : MPEG Audio
Format version                           : Version 1
Format profile                           : Layer 3
Mode                                     : Joint stereo
Mode extension                           : MS Stereo
Codec ID                                 : 55
Codec ID/Hint                            : MP3
Duration                                 : 2h 6mn
Source duration                          : 2h 6mn
Bit rate mode                            : Constant
Bit rate                                 : 128 Kbps
Channel(s)                               : 2 channels
Sampling rate                            : 48.0 KHz
Compression mode                         : Lossy
Stream size                              : 116 MiB (9%)
Alignment                                : Aligned on interleaves
Interleave, duration                     : 42 ms (1.00 video frame)
Writing library                          : LAME3.98.4


Film Detayları


Our Little Sister

Our Little Sister

Our Little Sister

Our Little Sister

Our Little Sister


Film Fragmanı


Film Detayları

Brrip İndir


Turbobit İle İndir

Mega ile indir

Uptobox ile indir

Mypcloud ile indir

Bu konuyu yazdır

Filmin Yayınlanma Tarihi: 2015 Küçük Kız Kardeşim (Our Little Sister) Türkçe Dublaj m720P İndir
Yazar: BroserBros - 07-03-2017, Saat: 21:21 - Forum: m720P - Yorum Yok

indirme türü


Bulut + Premium

vizyon tarihi


13 Haziran 2015

Boyutlar


1,31GB

diller


[TR]

altyazilar


Yok [Eklenebilir]

Video Format: Mkv


Matroska (.MKV)

Video Detay


MPEG-4, 1261 Kbps, 1,12 GB

imdb puanı


7,6 / 10,0 / 6,000

süre


128 dakika

Ses Kodek: AC3


Audio Coding 3 (AC3)

Ses Detay


192 Kbps, 2 Kanal, 174 Mb

rarsifresi


filmbol.org

Editör Puanı


6,3

Genislik Yukseklik


1280x692

sürüm


x264 | m720P




Film Detayları

Çağdaş Japon sinemasının ustası Kore-eda’nın beklenen filmi Our Little Sister, Yoshida Akimi’nin aynı adlı çok satan çizgi romanından uyarlandı. Büyükannelerine ait bir evde oturan üç yetişkin kız kardeş, yıllardır görmedikleri babalarının cenazesinde onlu yaşlarındaki utangaç üvey kız kardeşleri Suzu ile tanışırlar. Kızı çok sevip yanlarına alan kız kardeşler, ailelerine yeni katılan bu kızla gitgide yakınlaşmaya başlarlar. Klasik Japon tarzını benimseyen bu sakin ve dokunaklı aile dramı, Cannes’da Altın Palmiye için yarışmıştı. Filmin başrollerinde Haruka Ayase, Masami Nagasawa, Kaho, Takafumi Ikeda yer alıyor.

Teknik Detaylar


Kod:
General
Format                                   : Matroska
Format version                           : Version 4 / Version 2
File size                                : 1.31 GiB
Duration                                 : 2h 6mn
Overall bit rate                         : 1 482 Kbps
Movie name                               : Our Little Sister - Filmbol.org

Video
ID                                       : 1
Format                                   : AVC
Format/Info                              : Advanced Video Codec
Format profile                           : Main@L3.1
Format settings, CABAC                   : Yes
Format settings, ReFrames                : 2 frames
Format settings, GOP                     : M=1, N=25
Codec ID                                 : V_MPEG4/ISO/AVC
Duration                                 : 2h 6mn
Bit rate                                 : 1 261 Kbps
Width                                    : 1 280 pixels
Height                                   : 692 pixels
Display aspect ratio                     : 1.85:1
Frame rate mode                          : Constant
Frame rate                               : 23.976 fps
Color space                              : YUV
Chroma subsampling                       : 4:2:0
Bit depth                                : 8 bits
Scan type                                : Progressive
Bits/(Pixel*Frame)                       : 0.059
Stream size                              : 1.12 GiB (85%)
Title                                    : m720P - Filmbol.org
Language                                 : Japanese
Default                                  : Yes
Forced                                   : No

Audio
ID                                       : 2
Format                                   : AC-3
Format/Info                              : Audio Coding 3
Mode extension                           : CM (complete main)
Format settings, Endianness              : Big
Codec ID                                 : A_AC3
Duration                                 : 2h 6mn
Bit rate mode                            : Constant
Bit rate                                 : 192 Kbps
Channel(s)                               : 2 channels
Channel positions                        : Front: L R
Sampling rate                            : 48.0 KHz
Bit depth                                : 16 bits
Compression mode                         : Lossy
Stream size                              : 174 MiB (13%)
Title                                    : Türkçe - Filmbol.org
Language                                 : Turkish
Default                                  : Yes
Forced                                   : No


Film Detayları


Our Little Sister

Our Little Sister

Our Little Sister

Our Little Sister

Our Little Sister


Film Fragmanı


Film Detayları

Mini 720P İndir


Turbobit İle İndir

Mega ile indir

Uptobox ile indir

Mypcloud ile indir

Bu konuyu yazdır

Filmin Yayınlanma Tarihi: 2015 Küçük Kız Kardeşim (Our Little Sister) Türkçe Dublaj m1080P İndir
Yazar: BroserBros - 07-03-2017, Saat: 21:21 - Forum: m1080P - Yorum Yok

indirme türü


Bulut + Premium

vizyon tarihi


13 Haziran 2015

Boyutlar


2,55GB

diller


[TR]

altyazilar


Yok [Eklenebilir]

Video Format: Mkv


Matroska (.MKV)

Video Detay


MPEG-4, 2687 Kbps, 2,33 GB

imdb puanı


7,6 / 10,0 / 6,000

süre


128 dakika

Ses Kodek: AC3


Audio Coding 3 (AC3)

Ses Detay


192 Kbps, 2 Kanal, 174 Mb

rarsifresi


filmbol.org

Editör Puanı


6,3

Genislik Yukseklik


1920x1036

sürüm


x264 | m1080P




Film Detayları

Çağdaş Japon sinemasının ustası Kore-eda’nın beklenen filmi Our Little Sister, Yoshida Akimi’nin aynı adlı çok satan çizgi romanından uyarlandı. Büyükannelerine ait bir evde oturan üç yetişkin kız kardeş, yıllardır görmedikleri babalarının cenazesinde onlu yaşlarındaki utangaç üvey kız kardeşleri Suzu ile tanışırlar. Kızı çok sevip yanlarına alan kız kardeşler, ailelerine yeni katılan bu kızla gitgide yakınlaşmaya başlarlar. Klasik Japon tarzını benimseyen bu sakin ve dokunaklı aile dramı, Cannes’da Altın Palmiye için yarışmıştı. Filmin başrollerinde Haruka Ayase, Masami Nagasawa, Kaho, Takafumi Ikeda yer alıyor.

Teknik Detaylar


Kod:
General
Format                                   : Matroska
Format version                           : Version 4 / Version 2
File size                                : 2.55 GiB
Duration                                 : 2h 6mn
Overall bit rate                         : 2 879 Kbps
Movie name                               : Our Little Sister - Filmbol.org

Video
ID                                       : 1
Format                                   : AVC
Format/Info                              : Advanced Video Codec
Format profile                           : High@L4.1
Format settings, CABAC                   : Yes
Format settings, ReFrames                : 4 frames
Codec ID                                 : V_MPEG4/ISO/AVC
Duration                                 : 2h 6mn
Bit rate                                 : 2 687 Kbps
Width                                    : 1 920 pixels
Height                                   : 1 036 pixels
Display aspect ratio                     : 1.85:1
Frame rate mode                          : Constant
Frame rate                               : 23.976 fps
Color space                              : YUV
Chroma subsampling                       : 4:2:0
Bit depth                                : 8 bits
Scan type                                : Progressive
Bits/(Pixel*Frame)                       : 0.056
Stream size                              : 2.33 GiB (91%)
Title                                    : m1080P - Filmbol.org
Writing library                          : x264 core 148 r2744 b97ae06
Default                                  : Yes
Forced                                   : No

Audio
ID                                       : 2
Format                                   : AC-3
Format/Info                              : Audio Coding 3
Mode extension                           : CM (complete main)
Format settings, Endianness              : Big
Codec ID                                 : A_AC3
Duration                                 : 2h 6mn
Bit rate mode                            : Constant
Bit rate                                 : 192 Kbps
Channel(s)                               : 2 channels
Channel positions                        : Front: L R
Sampling rate                            : 48.0 KHz
Bit depth                                : 16 bits
Compression mode                         : Lossy
Stream size                              : 174 MiB (7%)
Title                                    : Türkçe - Filmbol.org
Language                                 : Turkish
Default                                  : Yes
Forced                                   : No


Film Detayları


Our Little Sister

Our Little Sister

Our Little Sister

Our Little Sister

Our Little Sister


Film Fragmanı


Film Detayları

Mini 1080P İndir


Turbobit İle İndir

Mega ile indir

Uptobox ile indir

Mypcloud ile indir

Bu konuyu yazdır

Filmin Yayınlanma Tarihi: 2016 Çılgın İhtiyar (Dirty Grandpa) Türkçe Dublaj Brrip-Xvid İndir
Yazar: BroserBros - 07-03-2017, Saat: 18:41 - Forum: Brrip-Xvid - Yorum Yok

indirme türü


Bulut + Premium

vizyon tarihi


22 Haziran 2016

Boyutlar


1,01GB

diller


[TR]

altyazilar


Yok [Eklenebilir]

Video Format: Avi


Audio Video Interleave (.AVI)

Video Detay


MPEG-4, 1296 Kbps, 0,94 GB

imdb puanı


6,0 / 10,0 / 71,000

süre


102 dakika

Ses Kodek: MP3


MPEG-1 Audio Layer III (MP3)

Ses Detay


128 Kbps, 2 Kanal, 94 Mb

rarsifresi


filmbol.org

Editör Puanı


6,0

Genislik Yukseklik


720x304

sürüm


h263 | Brrip-Xvid




Film Detayları

Evlilik arifesindeki Jason ve eski asker emeklisi büyükbabası Dick, bahar tatili için soluğu Florida'da alır! Damat olmak üzereyken Jason'ı zorlu sınavlar beklemektedir. Ancak büyükbabanın niyeti çok farklıdır, eğlenmek, genç kadınlarla zaman geçirmek, kendini kaybetmek istemektedir. Jason büyükbabasının yaptıklarına inanamasa da zaman geçtikçe hayatın tadını çıkarmanın önemli olduğunu anlamaya başlayacaktır.Eğlenceli komedi filminin yönetmenliğini Dan Mazer üstlenirken, senaryo John Phillips'e ait. Filmin oyuncu kadrosunda ise Zac Efron, Robert De Niro ve Zoey Deutch başrollerde.

Teknik Detaylar

Kod:
General
Format                                   : AVI
Format/Info                              : Audio Video Interleave
File size                                : 1.02 GiB
Duration                                 : 1h 42mn
Overall bit rate                         : 1 433 Kbps

Video
ID                                       : 0
Format                                   : MPEG-4 Visual
Format profile                           : Simple@L1
Format settings, BVOP                    : No
Format settings, QPel                    : No
Format settings, GMC                     : No warppoints
Format settings, Matrix                  : Default (H.263)
Codec ID                                 : FMP4
Duration                                 : 1h 42mn
Bit rate                                 : 1 296 Kbps
Width                                    : 720 pixels
Height                                   : 304 pixels
Display aspect ratio                     : 2.35:1
Frame rate                               : 23.976 fps
Color space                              : YUV
Chroma subsampling                       : 4:2:0
Bit depth                                : 8 bits
Scan type                                : Progressive
Compression mode                         : Lossy
Bits/(Pixel*Frame)                       : 0.247
Stream size                              : 949 MiB (90%)
Writing library                          : Lavc56.41.100

Audio
ID                                       : 1
Format                                   : MPEG Audio
Format version                           : Version 1
Format profile                           : Layer 3
Mode                                     : Joint stereo
Mode extension                           : MS Stereo
Codec ID                                 : 55
Codec ID/Hint                            : MP3
Duration                                 : 1h 42mn
Source duration                          : 1h 42mn
Bit rate mode                            : Constant
Bit rate                                 : 128 Kbps
Channel(s)                               : 2 channels
Sampling rate                            : 48.0 KHz
Compression mode                         : Lossy
Stream size                              : 93.7 MiB (9%)
Alignment                                : Aligned on interleaves
Interleave, duration                     : 42 ms (1.00 video frame)
Writing library                          : LAME3.99.5



Film Detayları


Dirty Grandpa

Dirty Grandpa

Dirty Grandpa

Dirty Grandpa

Dirty Grandpa


Film Fragmanı


Film Detayları

Brrip İndir


Turbobit İle İndir

Mega ile indir

Uptobox ile indir

Mypcloud ile indir

Bu konuyu yazdır