Hoşgeldin, Ziyaretçi: Giriş Yap Üye Ol


Konuyu Oyla:
  • Derecelendirme: 0/5 - 0 oy
  • 1
  • 2
  • 3
  • 4
  • 5
Müttefik (Allied) Türkçe Dublaj m720P İndir
#1
Filmin Yayınlanma Tarihi: 2016 

indirme türü


Bulut + Premium

vizyon tarihi


02 Aralık 2016

Boyutlar


1,01GB

diller


[TR]

altyazilar


Yok [Eklenebilir]

Video Format: Mkv


Matroska (.MKV)

Video Detay


MPEG-4, 949 Kbps, 0,82 GB

imdb puanı


7,1 / 10,0 / 60,000

süre


124 dakika

Ses Kodek: AC3


Audio Coding 3 (AC3)

Ses Detay


192 Kbps, 2 Kanal, 171 Mb

rarsifresi


filmbol.org

Editör Puanı


7,0

Genislik Yukseklik


1280x536

sürüm


x264 | m720P




Film Detayları

Romantik savaş türü Müttefik filmi birbirine aşık olan iki apayrı insanı temel alıyor. İstihbarat subayı Max Vatan 1942 yılında Kuzey Afrika’da düşman hattında savaşmaktayken, Fransız direniş savaşçısı Marianne Beausejour ile tanışır. İkili hemen birbirlerine aşık olurlar. Londra'da tekrar bir araya geldiklerinde ise aşkları savaşın büyük baskısına direnip direnememenin sınavını vermek zorunda kalacaktır.

Filmin başrollerinde Brad Pitt ve Marion Cotillard yer alıyor. Filmin yönetmen koltuğunda ise Oscar ödüllü yönetmen Robert Zemeckis oturuyor.

Teknik Detaylar

Kod:
General
Format                                   : Matroska
Format version                           : Version 4 / Version 2
File size                                : 1 018 MiB
Duration                                 : 2h 4mn
Overall bit rate                         : 1 143 Kbps
Movie name                               : Allied - Filmbol.org

Video
ID                                       : 1
Format                                   : AVC
Format/Info                              : Advanced Video Codec
Format profile                           : High@L4.1
Format settings, CABAC                   : Yes
Format settings, ReFrames                : 5 frames
Codec ID                                 : V_MPEG4/ISO/AVC
Duration                                 : 2h 4mn
Bit rate                                 : 949 Kbps
Width                                    : 1 280 pixels
Height                                   : 536 pixels
Display aspect ratio                     : 2.40:1
Frame rate mode                          : Constant
Frame rate                               : 23.976 fps
Color space                              : YUV
Chroma subsampling                       : 4:2:0
Bit depth                                : 8 bits
Scan type                                : Progressive
Bits/(Pixel*Frame)                       : 0.058
Stream size                              : 827 MiB (81%)
Title                                    : m720P - Filmbol.org
Writing library                          : x264 core 148 r2638 7599210
Default                                  : Yes
Forced                                   : No
Color primaries                          : BT.709
Matrix coefficients                      : BT.709

Audio
ID                                       : 2
Format                                   : AC-3
Format/Info                              : Audio Coding 3
Mode extension                           : CM (complete main)
Format settings, Endianness              : Big
Codec ID                                 : A_AC3
Duration                                 : 2h 4mn
Bit rate mode                            : Constant
Bit rate                                 : 192 Kbps
Channel(s)                               : 2 channels
Channel positions                        : Front: L R
Sampling rate                            : 48.0 KHz
Bit depth                                : 16 bits
Compression mode                         : Lossy
Stream size                              : 171 MiB (17%)
Title                                    : Türkçe - Filmbol.org
Language                                 : Turkish
Default                                  : Yes
Forced                                   : No



Film Detayları


Allied

Allied

Allied

Allied

Allied


Film Fragmanı


Film Detayları

Mini 720P İndir


Turbobit İle İndir

Mega ile indir

Uptobox ile indir

Mypcloud ile indir

 
Alinti
  


Hızlı Menü:


Şu anda bu konuyu okuyanlar: 1 Ziyaretçi