Hoşgeldin, Ziyaretçi: Giriş Yap Üye Ol


Konuyu Oyla:
  • Derecelendirme: 0/5 - 0 oy
  • 1
  • 2
  • 3
  • 4
  • 5
Müttefik (Allied) Türkçe Dublaj Brrip-Xvid İndir
#1
Filmin Yayınlanma Tarihi: 2016 

indirme türü


Bulut + Premium

vizyon tarihi


02 Aralık 2016

Boyutlar


1,11GB

diller


[TR]

altyazilar


Yok [Eklenebilir]

Video Format: Avi


Audio Video Interleave (.AVI)

Video Detay


MPEG-4, 1144 Kbps, 1,02 GB

imdb puanı


7,1 / 10,0 / 60,000

süre


124 dakika

Ses Kodek: MP3


MPEG-1 Audio Layer III (MP3)

Ses Detay


128 Kbps, 2 Kanal, 114 Mb

rarsifresi


filmbol.org

Editör Puanı


7,0

Genislik Yukseklik


720x302

sürüm


h263 | Brrip-Xvid




Film Detayları

Romantik savaş türü Müttefik filmi birbirine aşık olan iki apayrı insanı temel alıyor. İstihbarat subayı Max Vatan 1942 yılında Kuzey Afrika’da düşman hattında savaşmaktayken, Fransız direniş savaşçısı Marianne Beausejour ile tanışır. İkili hemen birbirlerine aşık olurlar. Londra'da tekrar bir araya geldiklerinde ise aşkları savaşın büyük baskısına direnip direnememenin sınavını vermek zorunda kalacaktır.

Filmin başrollerinde Brad Pitt ve Marion Cotillard yer alıyor. Filmin yönetmen koltuğunda ise Oscar ödüllü yönetmen Robert Zemeckis oturuyor.

Teknik Detaylar

Kod:
General
Format                                   : AVI
Format/Info                              : Audio Video Interleave
File size                                : 1.12 GiB
Duration                                 : 2h 4mn
Overall bit rate                         : 1 281 Kbps

Video
ID                                       : 0
Format                                   : MPEG-4 Visual
Format profile                           : Advanced Simple@L5
Format settings, BVOP                    : 2
Format settings, QPel                    : No
Format settings, GMC                     : No warppoints
Format settings, Matrix                  : Default (H.263)
Muxing mode                              : Packed bitstream
Codec ID                                 : XVID
Codec ID/Hint                            : XviD
Duration                                 : 2h 4mn
Bit rate                                 : 1 144 Kbps
Width                                    : 720 pixels
Height                                   : 302 pixels
Display aspect ratio                     : 2.40:1
Frame rate                               : 23.976 fps
Color space                              : YUV
Chroma subsampling                       : 4:2:0
Bit depth                                : 8 bits
Scan type                                : Progressive
Compression mode                         : Lossy
Bits/(Pixel*Frame)                       : 0.219
Stream size                              : 1 020 MiB (89%)
Writing library                          : XviD 66

Audio
ID                                       : 1
Format                                   : MPEG Audio
Format version                           : Version 1
Format profile                           : Layer 3
Mode                                     : Joint stereo
Mode extension                           : MS Stereo
Codec ID                                 : 55
Codec ID/Hint                            : MP3
Duration                                 : 2h 4mn
Source duration                          : 2h 4mn
Bit rate mode                            : Constant
Bit rate                                 : 128 Kbps
Channel(s)                               : 2 channels
Sampling rate                            : 48.0 KHz
Compression mode                         : Lossy
Stream size                              : 114 MiB (10%)
Alignment                                : Aligned on interleaves
Interleave, duration                     : 42 ms (1.00 video frame)
Writing library                          : LAME3.99.5



Film Detayları


Allied

Allied

Allied

Allied

Allied


Film Fragmanı


Film Detayları

Brrip İndir


Turbobit İle İndir

Mega ile indir

Uptobox ile indir

Mypcloud ile indir

 
Alinti
  


Konu ile Alakalı Benzer Konular
Konular Yazar Yorumlar Okunma Son Yorum
Filmin Yayınlanma Tarihi: 2016 Cafe Society Türkçe Dublaj Brrip-Xvid İndir BroserBros 1 426 15-05-2018, Saat: 21:38
Son Yorum: seaneren
Filmin Yayınlanma Tarihi: 2015 Istakoz (The Lobster) Türkçe Dublaj Brrip-Xvid İndir BroserBros 0 445 21-02-2017, Saat: 19:20
Son Yorum: BroserBros
Filmin Yayınlanma Tarihi: 2016 Bekar Yaşam Klavuzu (How To Be Single) Türkçe Dublaj Brrip-Xvid İndir BroserBros 0 346 05-02-2017, Saat: 19:36
Son Yorum: BroserBros
Filmin Yayınlanma Tarihi: 2015 Ashby Türkçe Dublaj Brrip-Xvid İndir BroserBros 0 350 03-02-2017, Saat: 16:24
Son Yorum: BroserBros
Filmin Yayınlanma Tarihi: 2015 Naomi and Ely's No Kiss List Türkçe Dublaj Brrip-Xvid İndir BroserBros 0 346 30-01-2017, Saat: 20:25
Son Yorum: BroserBros

Hızlı Menü:


Şu anda bu konuyu okuyanlar: 1 Ziyaretçi