Hoşgeldin, Ziyaretçi: Giriş Yap Üye Ol


Konuyu Oyla:
  • Derecelendirme: 0/5 - 0 oy
  • 1
  • 2
  • 3
  • 4
  • 5
Küçük Kız Kardeşim (Our Little Sister) Türkçe Dublaj m720P İndir
#1
Filmin Yayınlanma Tarihi: 2015 

indirme türü


Bulut + Premium

vizyon tarihi


13 Haziran 2015

Boyutlar


1,31GB

diller


[TR]

altyazilar


Yok [Eklenebilir]

Video Format: Mkv


Matroska (.MKV)

Video Detay


MPEG-4, 1261 Kbps, 1,12 GB

imdb puanı


7,6 / 10,0 / 6,000

süre


128 dakika

Ses Kodek: AC3


Audio Coding 3 (AC3)

Ses Detay


192 Kbps, 2 Kanal, 174 Mb

rarsifresi


filmbol.org

Editör Puanı


6,3

Genislik Yukseklik


1280x692

sürüm


x264 | m720P




Film Detayları

Çağdaş Japon sinemasının ustası Kore-eda’nın beklenen filmi Our Little Sister, Yoshida Akimi’nin aynı adlı çok satan çizgi romanından uyarlandı. Büyükannelerine ait bir evde oturan üç yetişkin kız kardeş, yıllardır görmedikleri babalarının cenazesinde onlu yaşlarındaki utangaç üvey kız kardeşleri Suzu ile tanışırlar. Kızı çok sevip yanlarına alan kız kardeşler, ailelerine yeni katılan bu kızla gitgide yakınlaşmaya başlarlar. Klasik Japon tarzını benimseyen bu sakin ve dokunaklı aile dramı, Cannes’da Altın Palmiye için yarışmıştı. Filmin başrollerinde Haruka Ayase, Masami Nagasawa, Kaho, Takafumi Ikeda yer alıyor.

Teknik Detaylar


Kod:
General
Format                                   : Matroska
Format version                           : Version 4 / Version 2
File size                                : 1.31 GiB
Duration                                 : 2h 6mn
Overall bit rate                         : 1 482 Kbps
Movie name                               : Our Little Sister - Filmbol.org

Video
ID                                       : 1
Format                                   : AVC
Format/Info                              : Advanced Video Codec
Format profile                           : Main@L3.1
Format settings, CABAC                   : Yes
Format settings, ReFrames                : 2 frames
Format settings, GOP                     : M=1, N=25
Codec ID                                 : V_MPEG4/ISO/AVC
Duration                                 : 2h 6mn
Bit rate                                 : 1 261 Kbps
Width                                    : 1 280 pixels
Height                                   : 692 pixels
Display aspect ratio                     : 1.85:1
Frame rate mode                          : Constant
Frame rate                               : 23.976 fps
Color space                              : YUV
Chroma subsampling                       : 4:2:0
Bit depth                                : 8 bits
Scan type                                : Progressive
Bits/(Pixel*Frame)                       : 0.059
Stream size                              : 1.12 GiB (85%)
Title                                    : m720P - Filmbol.org
Language                                 : Japanese
Default                                  : Yes
Forced                                   : No

Audio
ID                                       : 2
Format                                   : AC-3
Format/Info                              : Audio Coding 3
Mode extension                           : CM (complete main)
Format settings, Endianness              : Big
Codec ID                                 : A_AC3
Duration                                 : 2h 6mn
Bit rate mode                            : Constant
Bit rate                                 : 192 Kbps
Channel(s)                               : 2 channels
Channel positions                        : Front: L R
Sampling rate                            : 48.0 KHz
Bit depth                                : 16 bits
Compression mode                         : Lossy
Stream size                              : 174 MiB (13%)
Title                                    : Türkçe - Filmbol.org
Language                                 : Turkish
Default                                  : Yes
Forced                                   : No


Film Detayları


Our Little Sister

Our Little Sister

Our Little Sister

Our Little Sister

Our Little Sister


Film Fragmanı


Film Detayları

Mini 720P İndir


Turbobit İle İndir

Mega ile indir

Uptobox ile indir

Mypcloud ile indir

 
Alinti
  


Hızlı Menü:


Şu anda bu konuyu okuyanlar: 1 Ziyaretçi