Hoşgeldin, Ziyaretçi: Giriş Yap Üye Ol


Konuyu Oyla:
  • Derecelendirme: 0/5 - 0 oy
  • 1
  • 2
  • 3
  • 4
  • 5
Küçük Kız Kardeşim (Our Little Sister) Türkçe Dublaj Brrip-Xvid İndir
#1
Filmin Yayınlanma Tarihi: 2015 

indirme türü


Bulut + Premium

vizyon tarihi


13 Haziran 2015

Boyutlar


1,29GB

diller


[TR]

altyazilar


Yok [Eklenebilir]

Video Format: Avi


Audio Video Interleave (.AVI)

Video Detay


MPEG-4, 1338 Kbps, 1,19 GB

imdb puanı


7,6 / 10,0 / 6,000

süre


128 dakika

Ses Kodek: MP3


MPEG-1 Audio Layer III (MP3)

Ses Detay


128 Kbps, 2 Kanal, 116 Mb

rarsifresi


filmbol.org

Editör Puanı


6,3

Genislik Yukseklik


720x390

sürüm


h263 | Brrip-Xvid




Film Detayları

Çağdaş Japon sinemasının ustası Kore-eda’nın beklenen filmi Our Little Sister, Yoshida Akimi’nin aynı adlı çok satan çizgi romanından uyarlandı. Büyükannelerine ait bir evde oturan üç yetişkin kız kardeş, yıllardır görmedikleri babalarının cenazesinde onlu yaşlarındaki utangaç üvey kız kardeşleri Suzu ile tanışırlar. Kızı çok sevip yanlarına alan kız kardeşler, ailelerine yeni katılan bu kızla gitgide yakınlaşmaya başlarlar. Klasik Japon tarzını benimseyen bu sakin ve dokunaklı aile dramı, Cannes’da Altın Palmiye için yarışmıştı. Filmin başrollerinde Haruka Ayase, Masami Nagasawa, Kaho, Takafumi Ikeda yer alıyor.

Teknik Detaylar


Kod:
General
Format                                   : AVI
Format/Info                              : Audio Video Interleave
File size                                : 1.31 GiB
Duration                                 : 2h 6mn
Overall bit rate                         : 1 476 Kbps

Video
ID                                       : 0
Format                                   : MPEG-4 Visual
Format profile                           : Simple@L1
Format settings, BVOP                    : No
Format settings, QPel                    : No
Format settings, GMC                     : No warppoints
Format settings, Matrix                  : Default (H.263)
Codec ID                                 : FMP4
Duration                                 : 2h 6mn
Bit rate                                 : 1 338 Kbps
Width                                    : 720 pixels
Height                                   : 390 pixels
Display aspect ratio                     : 1.85:1
Frame rate                               : 23.976 fps
Color space                              : YUV
Chroma subsampling                       : 4:2:0
Bit depth                                : 8 bits
Scan type                                : Progressive
Compression mode                         : Lossy
Bits/(Pixel*Frame)                       : 0.199
Stream size                              : 1.19 GiB (91%)
Writing library                          : Lavc56.41.100

Audio
ID                                       : 1
Format                                   : MPEG Audio
Format version                           : Version 1
Format profile                           : Layer 3
Mode                                     : Joint stereo
Mode extension                           : MS Stereo
Codec ID                                 : 55
Codec ID/Hint                            : MP3
Duration                                 : 2h 6mn
Source duration                          : 2h 6mn
Bit rate mode                            : Constant
Bit rate                                 : 128 Kbps
Channel(s)                               : 2 channels
Sampling rate                            : 48.0 KHz
Compression mode                         : Lossy
Stream size                              : 116 MiB (9%)
Alignment                                : Aligned on interleaves
Interleave, duration                     : 42 ms (1.00 video frame)
Writing library                          : LAME3.98.4


Film Detayları


Our Little Sister

Our Little Sister

Our Little Sister

Our Little Sister

Our Little Sister


Film Fragmanı


Film Detayları

Brrip İndir


Turbobit İle İndir

Mega ile indir

Uptobox ile indir

Mypcloud ile indir

 
Alinti
  


Konu ile Alakalı Benzer Konular
Konular Yazar Yorumlar Okunma Son Yorum
Filmin Yayınlanma Tarihi: 2016 Kaptan Fantastik (Captain Fantastic) Türkçe Dublaj Brrip-Xvid İndir BroserBros 0 1,062 10-03-2017, Saat: 18:00
Son Yorum: BroserBros
Filmin Yayınlanma Tarihi: 2016 Sokak Kedisi Bob (A Street Cat Named Bob) Türkçe Dublaj Brrip-Xvid İndir BroserBros 0 844 06-03-2017, Saat: 21:26
Son Yorum: BroserBros
Filmin Yayınlanma Tarihi: 2014 5 Kat Yukarı (5 Flights Up) Türkçe Dublaj Brrip-Xvid İndir BroserBros 0 406 27-02-2017, Saat: 16:00
Son Yorum: BroserBros
Filmin Yayınlanma Tarihi: 2016 Katwe Kraliçesi (Quenn Of Katwe) Türkçe Dublaj Brrip-Xvid İndir BroserBros 0 381 20-02-2017, Saat: 22:03
Son Yorum: BroserBros
Filmin Yayınlanma Tarihi: 2016 O Kadın (Elle) Türkçe Dublaj Brrip-Xvid İndir BroserBros 0 371 20-02-2017, Saat: 18:35
Son Yorum: BroserBros

Hızlı Menü:


Şu anda bu konuyu okuyanlar: 1 Ziyaretçi