Hoşgeldin, Ziyaretçi: Giriş Yap Üye Ol


Konuyu Oyla:
  • Derecelendirme: 0/5 - 0 oy
  • 1
  • 2
  • 3
  • 4
  • 5
Kaptan Fantastik (Captain Fantastic) Türkçe Dublaj m1080P İndir
#1
Filmin Yayınlanma Tarihi: 2016 

indirme türü


Bulut + Premium

vizyon tarihi


11 Kasım 2016

Boyutlar


1,90GB

diller


[TR]

altyazilar


Yok [Eklenebilir]

Video Format: Mkv


Matroska (.MKV)

Video Detay


MPEG-4, 2050 Kbps, 1,67 GB

imdb puanı


7,9 / 10,0 / 90,000

süre


118 dakika

Ses Kodek: AC3


Audio Coding 3 (AC3)

Ses Detay


224 Kbps, 2 Kanal, 191 Mb

rarsifresi


filmbol.org

Editör Puanı


7,5

Genislik Yukseklik


1920x784

sürüm


x264 | m1080P




Film Detayları

Ben Cash, ABD’nin Kuzeybatı Pasifik ormanlarında, 6 çocuğu ile beraber bir kabinde medeniyetten izole bir hayat yaşamaktadır. Bu izole ortamda ebeveynlik, kendi doğrularını yaratmıştır ve çocuklar moderniteye karşı bir bağışıklık kazanamamışlardır. Ben, kendini çocuklarını büyük bir titizlikle hem fiziksel hem de entelektüel olarak yetiştirmeye adamıştır. Fakat karısı Leslie’nin ölümü ormandaki "düzeni" de sarsar. Zira çocuklar annelerinin cenazesine katılmak için şehre ve medeniyete dönmek isterler. Ev eğitimi ile yetiştirdiği çocuklarının hem annesi hem babası olan Ben için bundan sonrası ormandaki hayattan daha zor olacaktır...

Viggo Mortensen başrolde olduğu etkileyici yapımın yönetmeni ve senaristi ise Matt Ross.

Teknik Detaylar

Kod:
General
Format                                   : Matroska
Format version                           : Version 4 / Version 2
File size                                : 1.90 GiB
Duration                                 : 1h 59mn
Overall bit rate                         : 2 276 Kbps
Movie name                               : Captain Fantastic - Filmbol.org

Video
ID                                       : 1
Format                                   : AVC
Format/Info                              : Advanced Video Codec
Format profile                           : High@L4.1
Format settings, CABAC                   : Yes
Format settings, ReFrames                : 4 frames
Codec ID                                 : V_MPEG4/ISO/AVC
Duration                                 : 1h 59mn
Bit rate                                 : 2 050 Kbps
Width                                    : 1 920 pixels
Height                                   : 784 pixels
Display aspect ratio                     : 2.40:1
Frame rate mode                          : Constant
Frame rate                               : 23.976 fps
Color space                              : YUV
Chroma subsampling                       : 4:2:0
Bit depth                                : 8 bits
Scan type                                : Progressive
Bits/(Pixel*Frame)                       : 0.057
Stream size                              : 1.67 GiB (88%)
Title                                    : m1080P - Filmbol.org
Writing library                          : x264 core 148
Default                                  : Yes
Forced                                   : No

Audio
ID                                       : 2
Format                                   : AC-3
Format/Info                              : Audio Coding 3
Mode extension                           : CM (complete main)
Format settings, Endianness              : Big
Codec ID                                 : A_AC3
Duration                                 : 1h 59mn
Bit rate mode                            : Constant
Bit rate                                 : 224 Kbps
Channel(s)                               : 2 channels
Channel positions                        : Front: L R
Sampling rate                            : 48.0 KHz
Bit depth                                : 16 bits
Compression mode                         : Lossy
Stream size                              : 191 MiB (10%)
Title                                    : Türkçe - Filmbol.org
Language                                 : Turkish
Default                                  : Yes
Forced                                   : No



Film Detayları


Kaptan Fantastik

Kaptan Fantastik

Kaptan Fantastik

Kaptan Fantastik

Kaptan Fantastik


Film Fragmanı


Film Detayları

Mini 1080P İndir


Turbobit İle İndir

Mega ile indir

Uptobox ile indir

Cloud Ru ile indir

 
Alinti
  


Hızlı Menü:


Şu anda bu konuyu okuyanlar: 1 Ziyaretçi