Hoşgeldin, Ziyaretçi: Giriş Yap Üye Ol


Konuyu Oyla:
  • Derecelendirme: 0/5 - 0 oy
  • 1
  • 2
  • 3
  • 4
  • 5
Kaptan Fantastik (Captain Fantastic) Türkçe Dublaj Brrip-Xvid İndir
#1
Filmin Yayınlanma Tarihi: 2016 

indirme türü


Bulut + Premium

vizyon tarihi


11 Kasım 2016

Boyutlar


1,11GB

diller


[TR]

altyazilar


Yok [Eklenebilir]

Video Format: Avi


Audio Video Interleave (.AVI)

Video Detay


MPEG-4, 1199 Kbps, 1,00 GB

imdb puanı


7,9 / 10,0 / 90,000

süre


118 dakika

Ses Kodek: MP3


MPEG-1 Audio Layer III (MP3)

Ses Detay


128 Kbps, 2 Kanal, 109 Mb

rarsifresi


filmbol.org

Editör Puanı


7,5

Genislik Yukseklik


720x300

sürüm


h263 | Brrip-Xvid




Film Detayları

Ben Cash, ABD’nin Kuzeybatı Pasifik ormanlarında, 6 çocuğu ile beraber bir kabinde medeniyetten izole bir hayat yaşamaktadır. Bu izole ortamda ebeveynlik, kendi doğrularını yaratmıştır ve çocuklar moderniteye karşı bir bağışıklık kazanamamışlardır. Ben, kendini çocuklarını büyük bir titizlikle hem fiziksel hem de entelektüel olarak yetiştirmeye adamıştır. Fakat karısı Leslie’nin ölümü ormandaki "düzeni" de sarsar. Zira çocuklar annelerinin cenazesine katılmak için şehre ve medeniyete dönmek isterler. Ev eğitimi ile yetiştirdiği çocuklarının hem annesi hem babası olan Ben için bundan sonrası ormandaki hayattan daha zor olacaktır...

Viggo Mortensen başrolde olduğu etkileyici yapımın yönetmeni ve senaristi ise Matt Ross.

Teknik Detaylar

Kod:
General
Format                                   : AVI
Format/Info                              : Audio Video Interleave
File size                                : 1.12 GiB
Duration                                 : 1h 59mn
Overall bit rate                         : 1 336 Kbps

Video
ID                                       : 0
Format                                   : MPEG-4 Visual
Format profile                           : Advanced Simple@L5
Format settings, BVOP                    : 2
Format settings, QPel                    : No
Format settings, GMC                     : No warppoints
Format settings, Matrix                  : Default (H.263)
Muxing mode                              : Packed bitstream
Codec ID                                 : XVID
Codec ID/Hint                            : XviD
Duration                                 : 1h 59mn
Bit rate                                 : 1 199 Kbps
Width                                    : 720 pixels
Height                                   : 300 pixels
Display aspect ratio                     : 2.40:1
Frame rate                               : 23.976 fps
Color space                              : YUV
Chroma subsampling                       : 4:2:0
Bit depth                                : 8 bits
Scan type                                : Progressive
Compression mode                         : Lossy
Bits/(Pixel*Frame)                       : 0.232
Stream size                              : 1.00 GiB (90%)
Writing library                          : XviD 66

Audio
ID                                       : 1
Format                                   : MPEG Audio
Format version                           : Version 1
Format profile                           : Layer 3
Mode                                     : Joint stereo
Mode extension                           : MS Stereo
Codec ID                                 : 55
Codec ID/Hint                            : MP3
Duration                                 : 1h 59mn
Source duration                          : 1h 59mn
Bit rate mode                            : Constant
Bit rate                                 : 128 Kbps
Channel(s)                               : 2 channels
Sampling rate                            : 48.0 KHz
Compression mode                         : Lossy
Stream size                              : 109 MiB (10%)
Alignment                                : Aligned on interleaves
Interleave, duration                     : 42 ms (1.00 video frame)
Writing library                          : LAME3.99.5



Film Detayları


Kaptan Fantastik

Kaptan Fantastik

Kaptan Fantastik

Kaptan Fantastik

Kaptan Fantastik


Film Fragmanı


Film Detayları

Brrip İndir


Turbobit İle İndir

Mega ile indir

Uptobox ile indir

Cloud Ru ile indir

 
Alinti
  


Konu ile Alakalı Benzer Konular
Konular Yazar Yorumlar Okunma Son Yorum
Filmin Yayınlanma Tarihi: 2015 Küçük Kız Kardeşim (Our Little Sister) Türkçe Dublaj Brrip-Xvid İndir BroserBros 0 826 07-03-2017, Saat: 21:22
Son Yorum: BroserBros
Filmin Yayınlanma Tarihi: 2016 Sokak Kedisi Bob (A Street Cat Named Bob) Türkçe Dublaj Brrip-Xvid İndir BroserBros 0 844 06-03-2017, Saat: 21:26
Son Yorum: BroserBros
Filmin Yayınlanma Tarihi: 2014 5 Kat Yukarı (5 Flights Up) Türkçe Dublaj Brrip-Xvid İndir BroserBros 0 406 27-02-2017, Saat: 16:00
Son Yorum: BroserBros
Filmin Yayınlanma Tarihi: 2016 Katwe Kraliçesi (Quenn Of Katwe) Türkçe Dublaj Brrip-Xvid İndir BroserBros 0 381 20-02-2017, Saat: 22:03
Son Yorum: BroserBros
Filmin Yayınlanma Tarihi: 2016 O Kadın (Elle) Türkçe Dublaj Brrip-Xvid İndir BroserBros 0 371 20-02-2017, Saat: 18:35
Son Yorum: BroserBros

Hızlı Menü:


Şu anda bu konuyu okuyanlar: 1 Ziyaretçi